[ create a new paste ] login | about

Link: http://codepad.org/rKq37AV7    [ raw code | fork ]

Plain Text, pasted on Jan 24:
foobar2000 1.5 / Dynamic Range Meter 1.1.1
log date: 2020-01-24 22:28:00

--------------------------------------------------------------------------------
Analyzed: Benjamin Zander / Philharmonia Orchestra / Telarc Classical SACD Sampler 2 (1)
          Conrad van Alphen / Rotterdam Chamber Orchestra / Telarc Classical SACD Sampler 2 (2)
          Donald Runnicles / Atlanta Symphony Orchestra And Chorus / Telarc Classical SACD Sampler 2 (3)
          Ensemble Galilei / Telarc Classical SACD Sampler 2 (4)
          Erich Kunzel / Cincinnati Pops Orchestra / Telarc Classical SACD Sampler 2 (5-7)
          Gerard Schwarz / Royal Liverpool Philharmonic Orchestra / Telarc Classical SACD Sampler 2 (8)
          Martin Pearlman / Boston Baroque / Telarc Classical SACD Sampler 2 (9)
          Paavo Järvi / Cincinnati Symphony Orchestra / Telarc Classical SACD Sampler 2 (10)
          Pavvo Jarvi / Cincinnati Symphony Orchestra / Telarc Classical SACD Sampler 2 (11)
          Roberto Spano / Atlanta Symphony Orchestra / Telarc Classical SACD Sampler 2 (12)
          Tapestry / Telarc Classical SACD Sampler 2 (13)
          The Empire Brass Quintet With William Kuhlman / Telarc Classical SACD Sampler 2 (14)
          Yolanda Kondonassis, harp / Telarc Classical SACD Sampler 2 (15)
--------------------------------------------------------------------------------

DR         Peak         RMS     Duration Track
--------------------------------------------------------------------------------
DR15      -1.54 dB   -25.27 dB      5:28 12-Gustav Mahler: Finale: Allegro moderato from Symphony No. 6 (excerpt)
DR12      -6.93 dB   -25.26 dB      2:51 10-Edvard Grieg: Allegro vivace from Holberg Suite
DR13      -1.40 dB   -20.83 dB      3:41 07-Ludwig van Beeethoven: Presto - Allegro assai from Symphony No. 9 (excerpt)
DR14      -8.49 dB   -27.00 dB      4:56 15-Scollay's Reel / King of the Fairies / Old Grey Cat / The Dance Goes On
DR14      -1.87 dB   -20.02 dB      3:30 08-Parade of the Charioteers from Ben Hur
DR13      -4.85 dB   -21.77 dB      3:40 09-String of Pearls
DR12      -1.01 dB   -18.92 dB      3:50 14-End Theme from Sleepy Hollow
DR14      -1.37 dB   -20.39 dB      5:54 06-Alan Hovhaness: Double fugue - moderato maestoso from Mysterious Mountain, Op. 132
DR13      -3.59 dB   -19.31 dB      2:02 11-George Frideric Handel: La Réjouissance from Music for the Royal Fireworks, HWV 351
DR16      -0.01 dB   -21.17 dB      4:08 13-Igor Stravinsky: Infernal Dance of King Kastchei from the Firebird Suite
DR15      -0.84 dB   -20.49 dB      4:35 02-Sergei Prokofiev: Death of Tybalt from Romeo and Juliet, Suite 1, Op. 64A
DR17      -0.67 dB   -25.39 dB     13:02 03-Christopher Theofanidis: Rainbow Body
DR12      -8.82 dB   -27.25 dB      2:20 05-Surge, propera amica mea from Canticum Canticorum
DR12      -5.19 dB   -20.88 dB      2:19 01-Henry Purcell: Rondeau from Abdelazer
DR12      -6.33 dB   -24.93 dB      4:56 04-Ernesto Lecuona: Malagueña from Andalucia, Suite Espagnole
--------------------------------------------------------------------------------

Number of tracks:  15
Official DR value: DR14

Samplerate:        88200 Hz
Channels:          2
Bits per sample:   24
Bitrate:           2070 kbps
Codec:             FLAC
================================================================================




Create a new paste based on this one


Comments: