[ create a new paste ] login | about

Link: http://codepad.org/rR8DQg1s    [ raw code | fork ]

Plain Text, pasted on Dec 11:
Exact Audio Copy V1.0 beta 6 from 9. April 2015

EAC extraction logfile from 8. December 2018, 8:33

Paul McCartney and Wings / Wild Life CD2 - Bonus Audio

Used drive  : ATAPI   iHAS122   C   Adapter: 1  ID: 0

Read mode               : Secure
Utilize accurate stream : Yes
Defeat audio cache      : Yes
Make use of C2 pointers : No

Read offset correction                      : 6
Overread into Lead-In and Lead-Out          : No
Fill up missing offset samples with silence : Yes
Delete leading and trailing silent blocks   : No
Null samples used in CRC calculations       : Yes
Used interface                              : Native Win32 interface for Win NT & 2000

Used output format : Internal WAV Routines
Sample format      : 44.100 Hz; 16 Bit; Stereo


TOC of the extracted CD

     Track |   Start  |  Length  | Start sector | End sector 
    ---------------------------------------------------------
        1  |  0:00.00 |  0:58.65 |         0    |     4414   
        2  |  0:58.65 |  3:17.61 |      4415    |    19250   
        3  |  4:16.51 |  2:32.72 |     19251    |    30722   
        4  |  6:49.48 |  0:44.36 |     30723    |    34058   
        5  |  7:34.09 |  2:54.14 |     34059    |    47122   
        6  | 10:28.23 |  0:31.23 |     47123    |    49470   
        7  | 10:59.46 |  4:51.15 |     49471    |    71310   
        8  | 15:50.61 |  2:04.28 |     71311    |    80638   
        9  | 17:55.14 |  0:15.49 |     80639    |    81812   
       10  | 18:10.63 |  1:16.39 |     81813    |    87551   
       11  | 19:27.27 |  3:53.31 |     87552    |   105057   
       12  | 23:20.58 |  4:04.37 |    105058    |   123394   
       13  | 27:25.20 |  0:12.10 |    123395    |   124304   
       14  | 27:37.30 |  3:46.30 |    124305    |   141284   
       15  | 31:23.60 |  3:48.44 |    141285    |   158428   
       16  | 35:12.29 |  4:16.42 |    158429    |   177670   
       17  | 39:28.71 |  2:44.29 |    177671    |   189999   


Range status and errors

Selected range

     Filename C:\Paul McCartney and Wings - Wild Life CD2 - Bonus Audio.wav

     Peak level 97.7 %
     Extraction speed 7.8 X
     Range quality 100.0 %
     Test CRC 90852A2B
     Copy CRC 90852A2B
     Copy OK

No errors occurred

 
AccurateRip summary
 
Track  1  not present in database
Track  2  not present in database
Track  3  not present in database
Track  4  not present in database
Track  5  not present in database
Track  6  not present in database
Track  7  not present in database
Track  8  not present in database
Track  9  not present in database
Track 10  not present in database
Track 11  not present in database
Track 12  not present in database
Track 13  not present in database
Track 14  not present in database
Track 15  not present in database
Track 16  not present in database
Track 17  not present in database
 
None of the tracks are present in the AccurateRip database

End of status report

---- CUETools DB Plugin V2.1.6

[CTDB TOCID: Ill9_NLAnNkj1hvM7greEV5aZTg-] found
Submit result: Ill9_NLAnNkj1hvM7greEV5aZTg- has been confirmed
Track | CTDB Status
  1   | (7/7) Accurately ripped
  2   | (7/7) Accurately ripped
  3   | (7/7) Accurately ripped
  4   | (7/7) Accurately ripped
  5   | (7/7) Accurately ripped
  6   | (7/7) Accurately ripped
  7   | (7/7) Accurately ripped
  8   | (7/7) Accurately ripped
  9   | (7/7) Accurately ripped
 10   | (7/7) Accurately ripped
 11   | (7/7) Accurately ripped
 12   | (7/7) Accurately ripped
 13   | (7/7) Accurately ripped
 14   | (6/7) Accurately ripped
 15   | (7/7) Accurately ripped
 16   | (7/7) Accurately ripped
 17   | (7/7) Accurately ripped


==== Log checksum D653D1FA2102FB237319B01AB0CD90C10A8ABE4D40C3C27BD5D62ED846036618 ====



Create a new paste based on this one


Comments: