[ create a new paste ] login | about

Link: http://codepad.org/rSKqpopJ    [ raw code | fork ]

Plain Text, pasted on Dec 17:
Exact Audio Copy V1.0 beta 3 from 29. August 2011

EAC extraction logfile from 13. August 2013, 18:54

The Beatles with Tony Sheridan / Single Box CD1

Used drive  : PLEXTOR BD-R  PX-B950SA   Adapter: 6  ID: 0

Read mode               : Secure
Utilize accurate stream : Yes
Defeat audio cache      : Yes
Make use of C2 pointers : No

Read offset correction                      : 6
Overread into Lead-In and Lead-Out          : No
Fill up missing offset samples with silence : Yes
Delete leading and trailing silent blocks   : No
Null samples used in CRC calculations       : Yes
Used interface                              : Native Win32 interface for Win NT & 2000

Used output format : Internal WAV Routines
Sample format      : 44.100 Hz; 16 Bit; Stereo


TOC of the extracted CD

     Track |   Start  |  Length  | Start sector | End sector 
    ---------------------------------------------------------
        1  |  0:00.00 |  2:50.25 |         0    |    12774   
        2  |  2:50.25 |  3:24.43 |     12775    |    28117   
        3  |  6:14.68 |  2:46.47 |     28118    |    40614   
        4  |  9:01.40 |  2:11.69 |     40615    |    50508   
        5  | 11:13.34 |  2:50.15 |     50509    |    63273   
        6  | 14:03.49 |  3:23.66 |     63274    |    78564   
        7  | 17:27.40 |  2:47.02 |     78565    |    91091   
        8  | 20:14.42 |  2:08.53 |     91092    |   100744   


Range status and errors

Selected range

     Filename C:\The Beatles\2013 Single Box (9 SHM-CD Box Set Universal Music Japan)\CD1\The Beatles with Tony Sheridan - Single Box CD1.wav

     Peak level 100.0 %
     Extraction speed 5.7 X
     Range quality 99.9 %
     Test CRC 50ABA209
     Copy CRC 50ABA209
     Copy OK

No errors occurred

 
AccurateRip summary
 
Track  1  not present in database
Track  2  not present in database
Track  3  not present in database
Track  4  not present in database
Track  5  not present in database
Track  6  not present in database
Track  7  not present in database
Track  8  not present in database
 
None of the tracks are present in the AccurateRip database

End of status report

==== Log checksum 9896020AFABBAC042BE1B4211CAF0FC6AA0DF6D4BD1536D317B6390E9002B79B ====



Create a new paste based on this one


Comments: