[ create a new paste ] login | about

Link: http://codepad.org/rTf5VFfh    [ raw code | fork ]

Plain Text, pasted on Mar 6:
foobar2000 1.4.1 / Dynamic Range Meter 1.1.1
log date: 2019-03-06 08:44:35

--------------------------------------------------------------------------------
Analyzed: Rebecca Pidgeon / The Raven
--------------------------------------------------------------------------------

DR         Peak         RMS     Duration Track
--------------------------------------------------------------------------------
DR10      -0.08 dB   -21.73 dB      3:05 01-Kalerka
DR10      -0.23 dB   -20.56 dB      2:48 02-The Witch
DR9       -1.41 dB   -21.12 dB      2:51 03-The Raven
DR11      -0.15 dB   -22.68 dB      3:40 04-You Need Me There
DR10      -1.13 dB   -20.49 dB      6:34 05-Grandmother
DR9       -0.06 dB   -18.50 dB      3:02 06-You Got Me
DR9       -0.05 dB   -17.30 dB      3:16 07-Heart and Mind
DR9       -0.27 dB   -19.89 dB      3:32 08-Her Man Leaves Town
DR10      -0.03 dB   -17.99 dB      4:00 09-Seven Hours
DR10      -0.52 dB   -20.41 dB      3:29 10-Wendy's Style Shop
DR9       -0.43 dB   -18.54 dB      3:43 11-The Height of Land
DR10      -0.32 dB   -20.46 dB      3:35 12-Spanish Harlem
DR9       -0.08 dB   -17.18 dB      2:31 13-Remember Me
--------------------------------------------------------------------------------

Number of tracks:  13
Official DR value: DR10

Samplerate:        88200 Hz
Channels:          5
Bits per sample:   24
Bitrate:           5264 kbps
Codec:             FLAC
================================================================================




Create a new paste based on this one


Comments: