[ create a new paste ] login | about

Link: http://codepad.org/rcNBJ0yK    [ raw code | fork ]

Plain Text, pasted on Oct 12:
foobar2000 1.2.8 / Dynamic Range Meter 1.1.1
log date: 2013-09-12 11:52:57

--------------------------------------------------------------------------------
Analyzed: Elton John / Tumbleweed Connection (2004 Hybrid SACD)
--------------------------------------------------------------------------------

DR         Peak         RMS     Duration Track
--------------------------------------------------------------------------------
DR12      -2.22 dB   -15.02 dB      4:57 01-Ballad of a Well Known Gun
DR13      -2.43 dB   -18.57 dB      3:24 02-Come Down in Time
DR12      -2.15 dB   -15.86 dB      5:06 03-Country Comfort
DR12      -1.87 dB   -14.90 dB      3:48 04-Son of Your Father
DR10      -1.97 dB   -14.38 dB      6:19 05-My Father's Gun
DR13      -0.01 dB   -15.03 dB      4:13 06-Where to Now St Peter?
DR14      -2.54 dB   -23.49 dB      3:41 07-Love Song
DR13      -2.09 dB   -17.11 dB      4:59 08-Amoreena
DR13      -2.27 dB   -23.08 dB      4:06 09-Talking Old Soldiers
DR13      -2.36 dB   -18.15 dB      6:33 10-Burn Down the Mission
DR11      -2.39 dB   -15.54 dB      4:01 11-Into the Old Man's Shoes
DR11      -1.97 dB   -15.40 dB      8:57 12-Madman Across the Water (Original Version)
--------------------------------------------------------------------------------

Number of tracks:  12
Official DR value: DR12

Samplerate:        88200 Hz
Channels:          6
Bits per sample:   24
Bitrate:           7483 kbps
Codec:             FLAC
================================================================================




Create a new paste based on this one


Comments: