[ create a new paste ] login | about

Link: http://codepad.org/rhT6KgBK    [ raw code | fork ]

Plain Text, pasted on Jun 16:
1
2
3
4
5
6
7
8
9
10
11
12
13
14
15
16
17
18
19
20
21
22
23
24
25
26
27
28
29
30
31
32
33
34
35
36
37
38
39
40
41
42
43
44
45
46
47
48
49
50
51
52
53
54
55
56
57
58
59
60
61
62
63
64
65
66
67
68
69
70
71
72
73
74
75
76
77
78
79
80
81
82
83
84
85
86
87
88
89
90
91
92
93
94
95
96
97
98
99
100
101
102
103
104
105
106
107
108
109
110
111
112
113
114
115
116
117
118
119
120
121
122
123
124
125
126
127
128
129
130
131
132
133
134
135
136
137
138
139
140
141
142
143
144
145
146
147
148
149
150
151
152
153
154
155
156
157
158
159
160
161
162
163
164
165
166
167
168
169
170
171
172
173
174
175
176
177
178
179
180
181
182
183
184
185
186
187
188
189
190
191
192
193
194
195
196
197
198
199
200
201
202
203
204
205
206
207
208
209
210
211
212
213
214
215
216
217
218
219
220
221
222
223
224
225
226
227
228
229
230
231
232
233
234
235
236
237
238
239
240
241
242
243
244
245
246
247
248
249
250
251
252
253
254
255
256
257
258
259
260
261
262
263
264
265
266
267
268
269
270
271
272
273
274
275
276
277
278
279
280
281
282
283
284
285
286
287
288
289
290
291
292
293
294
295
296
297
298
299
300
301
302
303
304
305
306
307
308
309
310
311
312
313
314
315
316
317
318
319
320
321
322
323
324
325
326
327
328
329
330
331
332
333
334
335
336
337
338
339
340
341
342
343
344
345
346
347
348
349
350
351
352
353
354
355
356
357
358
359
360
361
362
363
364
365
366
367
368
369
370
371
372
373
374
375
376
377
378
379
380
381
382
383
384
385
386
387
388
389
390
391
392
393
394
395
396
397
398
399
400
401
402
403
404
405
406
407
408
409
410
411
412
413
414
415
416
417
418
419
420
421
422
423
424
425
426
427
428
429
430
431
432
433
434
435
436
437
438
439
440
441
442
443
444
445
446
447
448
449
450
451
452
453
454
455
456
457
458
459
460
461
462
463
464
465
466
467
468
469
470
471
472
473
474
475
476
477
478
479
480
481
482
483
484
485
486
487
488
489
490
491
492
493
494
495
496
497
498
499
500
501
502
503
504
505
506
507
508
509
510
511
512
513
514
515
516
517
518
519
520
521
522
523
524
525
526
527
528
529
530
531
532
533
534
535
536
537
538
539
540
541
542
543
544
545
546
547
548
549
550
551
552
553
554
555
556
557
558
559
560
561
562
563
564
565
566
567
568
569
570
571
572
573
574
575
576
577
578
579
580
581
582
583
584
585
586
587
588
589
590
591
592
593
594
595
596
597
598
599
600
601
602
603
604
605
606
607
608
609
610
611
612
613
614
615
616
617
618
619
620
621
622
623
624
625
626
627
628
629
630
631
632
633
634
635
636
637
638
639
640
641
642
643
644
645
646
647
648
649
650
ATTAKcATHRAK
->
foobar2000 1.5 / Dynamic Range Meter 1.1.1
log date: 2020-06-16 07:16:45

--------------------------------------------------------------------------------
Analyzed: King Crimson / ATTAKcATHRAK
--------------------------------------------------------------------------------

DR         Peak         RMS     Duration Track
--------------------------------------------------------------------------------
DR13      -0.26 dB   -17.50 dB     10:42 01-ATTAKcATHRAK Part I
DR13      -0.69 dB   -19.42 dB      9:32 02-Fans, Sloth, Nuns, Felons
DR11      -0.23 dB   -15.97 dB      7:59 03-ATTAKcATHRAK Part II
DR12      -0.25 dB   -16.94 dB     10:24 04-Declamatory Doth Madden
DR13      -0.58 dB   -17.77 dB     10:48 05-Witnessing Dumb Whodunnits
--------------------------------------------------------------------------------

Number of tracks:  5
Official DR value: DR13

Samplerate:        48000 Hz
Channels:          6
Bits per sample:   24
Bitrate:           3874 kbps
Codec:             FLAC
================================================================================

foobar2000 1.5 / Dynamic Range Meter 1.1.1
log date: 2020-06-16 07:20:01

--------------------------------------------------------------------------------
Analyzed: King Crimson / ATTAKcATHRAK
--------------------------------------------------------------------------------

DR         Peak         RMS     Duration Track
--------------------------------------------------------------------------------
DR10      -0.90 dB   -13.97 dB     10:43 01-ATTAKcATHRAK Part I
DR11      -0.91 dB   -15.98 dB      9:32 02-Fans, Sloth, Nuns, Felons
DR9       -0.90 dB   -12.94 dB      7:59 03-ATTAKcATHRAK Part II
DR10      -0.90 dB   -13.63 dB     10:24 04-Declamatory Doth Madden
DR10      -0.90 dB   -14.16 dB     10:47 05-Witnessing Dumb Whodunnits
--------------------------------------------------------------------------------

Number of tracks:  5
Official DR value: DR10

Samplerate:        48000 Hz
Channels:          2
Bits per sample:   24
Bitrate:           1599 kbps
Codec:             FLAC
================================================================================
->
=========================================================================================================================================================
->
B'Boom
->
foobar2000 1.5 / Dynamic Range Meter 1.1.1
log date: 2020-06-16 07:19:46

--------------------------------------------------------------------------------
Analyzed: King Crimson / B'Boom
--------------------------------------------------------------------------------

DR         Peak         RMS     Duration Track
--------------------------------------------------------------------------------
DR8       -3.00 dB   -12.62 dB      7:06 01-VROOOM
DR9       -3.00 dB   -12.29 dB      5:24 02-Frame By Frame
DR8       -3.00 dB   -11.55 dB      4:48 03-Sex Steep Eat Drink Dream
DR8       -3.19 dB   -11.88 dB      6:07 04-Red
DR7       -5.26 dB   -14.18 dB      5:35 05-One Time
DR10      -3.92 dB   -19.00 dB      6:50 06-B'Boom
DR7       -3.00 dB   -12.51 dB      6:29 07-THRAK
DR8       -6.82 dB   -19.06 dB      1:25 08-lmprov Two Sticks
DR9       -3.00 dB   -12.49 dB      4:24 09-Elephant Talk
DR9       -3.00 dB   -14.38 dB      6:59 10-Indiscipline
DR7       -3.92 dB   -12.57 dB      6:10 11-VROOOM VROOOM
DR7       -6.66 dB   -15.27 dB      3:36 12-Matte Kudasai
DR8       -3.00 dB   -14.46 dB      5:49 13-The Talking Drum
DR8       -3.00 dB   -12.44 dB      7:26 14-Larks' Tangues In Aspic Part Two
DR8       -3.98 dB   -14.25 dB      3:52 15-Heartbeat
DR8       -3.37 dB   -12.96 dB      6:05 16-Sleepless
DR8       -3.22 dB   -12.24 dB      5:25 17-People
DR14      -6.87 dB   -25.40 dB      4:15 18-B'Boom (reprise)
DR8       -3.00 dB   -13.44 dB      5:32 19-THRAK
--------------------------------------------------------------------------------

Number of tracks:  19
Official DR value: DR8

Samplerate:        48000 Hz
Channels:          2
Bits per sample:   24
Bitrate:           1685 kbps
Codec:             FLAC
================================================================================

->
=========================================================================================================================================================
->
JurassiKc THRAK
->
foobar2000 1.5 / Dynamic Range Meter 1.1.1
log date: 2020-06-16 07:19:54

--------------------------------------------------------------------------------
Statistics for: 01-JurassiKc THRAK
Number of samples: 194112240
Duration: 1:07:24 
--------------------------------------------------------------------------------

                 Left              Right

Peak Value:     -0.20 dB   ---     -0.20 dB   
Avg RMS:       -13.89 dB   ---    -13.83 dB   
DR channel:      9.77 dB   ---      9.60 dB   
--------------------------------------------------------------------------------

Official DR Value: DR10

Samplerate:        48000 Hz
Channels:          2
Bits per sample:   24
Bitrate:           1535 kbps
Codec:             FLAC
================================================================================
->
=========================================================================================================================================================
->
Kcensington Thrak
->
foobar2000 1.5 / Dynamic Range Meter 1.1.1
log date: 2020-06-16 07:17:24

--------------------------------------------------------------------------------
Analyzed: King Crimson / Kcensington Thrak
--------------------------------------------------------------------------------

DR         Peak         RMS     Duration Track
--------------------------------------------------------------------------------
DR9       -8.41 dB   -30.21 dB      0:38 01-Entry Of The Crims
DR12      -0.20 dB   -14.52 dB      4:04 02-VROOOM
DR11      -0.20 dB   -14.30 dB      2:51 03-Coda Marine 475
DR12      -0.20 dB   -15.09 dB      5:22 04-Frame By Frame
DR11      -0.20 dB   -14.86 dB      7:05 05-Dinosaur
DR12      -0.20 dB   -18.03 dB      5:44 06-One Time
DR11      -0.20 dB   -13.50 dB      6:06 07-Red
DR14      -0.20 dB   -18.81 dB      6:02 08-B'Boom
DR11      -0.20 dB   -14.76 dB      5:32 09-THRAK
DR12      -0.20 dB   -15.18 dB      3:49 10-Heartbeat
DR12      -1.72 dB   -17.47 dB      3:39 11-Matte Kudasai
DR11      -0.20 dB   -15.06 dB      4:49 12-Sex Sleep Eat Drink Dream
DR12      -0.20 dB   -14.67 dB      6:21 13-People
DR12      -0.20 dB   -13.81 dB      4:59 14-VROOOM VROOOM
DR10      -0.20 dB   -18.42 dB      1:24 15-Improv Two Sticks
DR12      -0.20 dB   -14.56 dB      4:01 16-Elephant Talk
DR11      -0.20 dB   -16.55 dB     10:08 17-Indiscipline
DR16      -0.20 dB   -21.11 dB      2:17 18-Prism
DR11      -0.20 dB   -16.05 dB      2:46 19-The Talking Drum
DR11      -0.20 dB   -15.41 dB      9:08 20-Larks' Tongues In Aspic Part II
DR11      -0.81 dB   -18.89 dB      5:39 21-Walking On Air
--------------------------------------------------------------------------------

Number of tracks:  21
Official DR value: DR12

Samplerate:        48000 Hz
Channels:          6
Bits per sample:   24
Bitrate:           3999 kbps
Codec:             FLAC
================================================================================

foobar2000 1.5 / Dynamic Range Meter 1.1.1
log date: 2020-06-16 07:20:14

--------------------------------------------------------------------------------
Analyzed: King Crimson / Kcensington Thrak
--------------------------------------------------------------------------------

DR         Peak         RMS     Duration Track
--------------------------------------------------------------------------------
DR10      -8.70 dB   -26.93 dB      0:39 01-Entry Of The Crims
DR9       -0.36 dB   -11.30 dB      4:04 02-VROOOM
DR9       -0.36 dB   -11.01 dB      2:51 03-Coda Marine 475
DR10      -0.36 dB   -11.91 dB      5:22 04-Frame By Frame
DR10      -0.26 dB   -12.36 dB      7:05 05-Dinosaur
DR12      -0.26 dB   -15.17 dB      5:44 06-One Time
DR9       -0.26 dB   -10.01 dB      6:06 07-Red
DR12      -0.26 dB   -15.61 dB      6:02 08-B'Boom
DR8       -0.26 dB   -10.98 dB      5:32 09-THRAK
DR9       -0.26 dB   -11.73 dB      3:49 10-Heartbeat
DR11      -1.60 dB   -15.58 dB      3:39 11-Matte Kudasai
DR9       -0.26 dB   -11.49 dB      4:49 12-Sex Sleep Eat Drink Dream
DR9       -0.26 dB   -10.95 dB      6:21 13-People
DR9       -0.26 dB   -10.27 dB      4:59 14-VROOOM VROOOM
DR11      -3.02 dB   -17.62 dB      1:24 15-Improv Two Sticks
DR9       -0.26 dB   -10.61 dB      4:01 16-Elephant Talk
DR8       -0.26 dB   -13.59 dB     10:08 17-Indiscipline
DR14      -0.26 dB   -17.59 dB      2:17 18-Prism
DR11      -0.26 dB   -13.96 dB      2:46 19-The Talking Drum
DR11      -0.26 dB   -14.00 dB      9:08 20-Larks' Tongues In Aspic Part II
DR12      -0.98 dB   -15.56 dB      5:38 21-Walking On Air
--------------------------------------------------------------------------------

Number of tracks:  21
Official DR value: DR10

Samplerate:        48000 Hz
Channels:          2
Bits per sample:   24
Bitrate:           1596 kbps
Codec:             FLAC
================================================================================
->
=========================================================================================================================================================
->
THRAK (2015 Mix)
->
foobar2000 1.5 / Dynamic Range Meter 1.1.1
log date: 2020-06-16 07:19:33

--------------------------------------------------------------------------------
Analyzed: King Crimson / THRAK (2015 Mix)
--------------------------------------------------------------------------------

DR         Peak         RMS     Duration Track
--------------------------------------------------------------------------------
DR13      -0.35 dB   -16.62 dB      4:35 01-VROOOM
DR12      -0.46 dB   -15.45 dB      2:36 02-Coda Marine 475
DR12      -0.46 dB   -16.85 dB      6:39 03-Dinosaur
DR13      -1.34 dB   -18.87 dB      4:43 04-Walking On Air
DR15      -0.22 dB   -19.89 dB      4:11 05-B'Boom
DR14      -0.44 dB   -18.05 dB      3:59 06-THRAK
DR12      -3.77 dB   -21.20 dB      1:47 07-Inner Garden I
DR11      -0.43 dB   -15.72 dB      5:51 08-People
DR11     -12.61 dB   -29.34 dB      0:42 09-Radio I
DR13      -0.57 dB   -19.62 dB      5:22 10-One Time
DR10      -9.37 dB   -27.19 dB      0:58 11-Radio II
DR11      -7.34 dB   -22.88 dB      1:16 12-Inner Garden II
DR14      -0.54 dB   -18.01 dB      4:49 13-Sex Sleep Eat Drink Dream
DR14      -0.48 dB   -17.82 dB      5:42 14-VROOOM VROOOM
DR12      -0.44 dB   -17.08 dB      3:08 15-VROOOM VROOOM Coda
--------------------------------------------------------------------------------

Number of tracks:  15
Official DR value: DR13

Samplerate:        96000 Hz
Channels:          6
Bits per sample:   24
Bitrate:           6399 kbps
Codec:             FLAC
================================================================================

foobar2000 1.5 / Dynamic Range Meter 1.1.1
log date: 2020-06-16 07:20:56

--------------------------------------------------------------------------------
Analyzed: King Crimson / THRAK (2015 Mix)
--------------------------------------------------------------------------------

DR         Peak         RMS     Duration Track
--------------------------------------------------------------------------------
DR9       -1.06 dB   -11.81 dB      4:36 01-VROOOM
DR10      -0.50 dB   -11.57 dB      2:36 02-Coda Marine 475
DR8       -0.76 dB   -12.37 dB      6:39 03-Dinosaur
DR12      -1.56 dB   -15.75 dB      4:43 04-Walking On Air
DR10      -0.46 dB   -14.21 dB      4:11 05-B'Boom
DR9       -0.78 dB   -12.92 dB      3:59 06-THRAK
DR11      -2.57 dB   -16.76 dB      1:47 07-Inner Garden I
DR7       -0.86 dB   -10.28 dB      5:51 08-People
DR10      -8.06 dB   -22.20 dB      0:42 09-Radio I
DR9       -1.06 dB   -12.67 dB      5:22 10-One Time
DR10      -3.76 dB   -18.02 dB      0:58 11-Radio II
DR10      -1.26 dB   -15.19 dB      1:16 12-Inner Garden II
DR9       -0.76 dB   -12.03 dB      4:49 13-Sex Sleep Eat Drink Dream
DR9       -0.94 dB   -12.26 dB      5:42 14-VROOOM VROOOM
DR8       -0.99 dB   -12.03 dB      3:07 15-VROOOM VROOOM Coda
--------------------------------------------------------------------------------

Number of tracks:  15
Official DR value: DR9

Samplerate:        96000 Hz
Channels:          2
Bits per sample:   24
Bitrate:           2566 kbps
Codec:             FLAC
================================================================================
->
=========================================================================================================================================================
->
THRAK (Original Mix)
->
foobar2000 1.5 / Dynamic Range Meter 1.1.1
log date: 2020-06-16 07:21:10

--------------------------------------------------------------------------------
Analyzed: King Crimson / THRAK (Original Mix)
--------------------------------------------------------------------------------

DR         Peak         RMS     Duration Track
--------------------------------------------------------------------------------
DR8       -0.44 dB   -11.79 dB      4:40 01-VROOOM
DR8       -0.44 dB    -9.98 dB      2:41 02-Coda Marine 475
DR9       -0.44 dB   -12.47 dB      6:37 03-Dinosaur
DR10      -1.30 dB   -13.14 dB      4:37 04-Walking On Air
DR13      -0.45 dB   -17.46 dB      4:14 05-B'Boom
DR8       -0.44 dB   -10.37 dB      3:58 06-THRAK
DR11      -4.45 dB   -19.34 dB      1:48 07-Inner Garden I
DR8       -0.44 dB    -9.76 dB      5:53 08-People
DR12      -9.17 dB   -24.35 dB      0:43 09-Radio I
DR11      -1.07 dB   -14.25 dB      5:23 10-One Time
DR11     -17.52 dB   -33.41 dB      1:03 11-Radio II
DR11      -5.35 dB   -18.75 dB      1:16 12-Inner Garden II
DR9       -0.44 dB   -10.81 dB      4:50 13-Sex Sleep Eat Drink Dream
DR8       -0.42 dB   -10.43 dB      5:53 14-VROOOM VROOOM
DR7       -0.44 dB    -9.82 dB      3:03 15-VROOOM VROOOM Coda
--------------------------------------------------------------------------------

Number of tracks:  15
Official DR value: DR10

Samplerate:        96000 Hz
Channels:          2
Bits per sample:   24
Bitrate:           2659 kbps
Codec:             FLAC
================================================================================
->
=========================================================================================================================================================
->
THRaKaTTaK
->
foobar2000 1.5 / Dynamic Range Meter 1.1.1
log date: 2020-06-16 07:21:17

--------------------------------------------------------------------------------
Analyzed: King Crimson / THRaKaTTaK
--------------------------------------------------------------------------------

DR         Peak         RMS     Duration Track
--------------------------------------------------------------------------------
DR10      -0.70 dB   -13.98 dB      2:22 01-THRAK
DR12      -0.70 dB   -17.21 dB      6:36 02-Fearless And Highly THRaKked
DR11      -0.70 dB   -14.56 dB     11:19 03-Mother Hold The Candle Steady While I Shave The Chicken's Lip
DR11      -0.70 dB   -15.23 dB      3:42 04-THRaKaTTaK Part 1
DR12      -0.70 dB   -14.55 dB      8:03 05-The Slaughter Of The lnnocents
DR10      -0.70 dB   -14.65 dB     11:17 06-This Night Wounds Time
DR10      -0.70 dB   -13.07 dB     11:08 07-THRaKaTTaK Part 11
DR10      -0.70 dB   -13.59 dB      2:52 08-THRAK reprise
--------------------------------------------------------------------------------

Number of tracks:  8
Official DR value: DR11

Samplerate:        48000 Hz
Channels:          2
Bits per sample:   24
Bitrate:           1666 kbps
Codec:             FLAC
================================================================================
->
=========================================================================================================================================================
->
Live At The Nakano Sun Plaza, Tokyo, Japan, October 5 & 6, 1995
->
foobar2000 1.5 / Dynamic Range Meter 1.1.1
log date: 2020-06-16 07:18:05

--------------------------------------------------------------------------------
Analyzed: King Crimson / Live At The Nakano Sun Plaza, Tokyo, Japan, October 5 & 6, 1995
--------------------------------------------------------------------------------

DR         Peak         RMS     Duration Track
--------------------------------------------------------------------------------
DR3      -67.66 dB   -84.33 dB      0:22 01-Intro
DR19      -9.47 dB   -40.30 dB      2:33 02-Walk On
DR14      -1.58 dB   -21.74 dB      2:09 03-Circular lmprov
DR12      -1.56 dB   -16.84 dB      3:58 04-VROOOM
DR13      -1.57 dB   -16.68 dB      2:36 05-Coda Marine 475
DR12      -1.57 dB   -17.40 dB      5:19 06-Frame By Frame
DR13      -1.56 dB   -18.60 dB      6:53 07-Dinosaur
DR12      -1.57 dB   -17.72 dB      5:42 08-One Time
DR11      -1.56 dB   -15.15 dB      6:16 09-Red
DR18      -1.56 dB   -22.89 dB      7:26 10-B'Boom
DR12      -1.56 dB   -17.58 dB      6:20 11-THRAK
DR12      -2.54 dB   -18.89 dB      3:30 12-Matte Kudasai
DR10      -1.08 dB   -13.21 dB      4:14 13-Three Of A Perfect Pair
DR13      -1.48 dB   -16.57 dB      4:58 14-VROOOM VROOOM
DR12      -1.05 dB   -15.80 dB      4:52 15-Sex Sleep Eat Drink Dream
DR12      -4.55 dB   -23.82 dB      2:19 16-lmprov Two Sticks
DR13      -1.08 dB   -17.26 dB      4:00 17-Elephant Talk
DR13      -1.56 dB   -18.63 dB      6:41 18-Indiscipline
DR12      -1.45 dB   -18.93 dB      3:26 19-The Talking Drum
DR11      -1.21 dB   -14.59 dB      6:17 20-Larks' Tongues In Aspic Part Two
DR12      -1.47 dB   -16.26 dB      5:48 21-People
DR14      -2.50 dB   -23.18 dB      6:11 22-Walking On Air
--------------------------------------------------------------------------------

Number of tracks:  22
Official DR value: DR12

Samplerate:        48000 Hz
Channels:          6
Bits per sample:   24
Bitrate:           4382 kbps
Codec:             FLAC
================================================================================

foobar2000 1.5 / Dynamic Range Meter 1.1.1
log date: 2020-06-16 07:20:27

--------------------------------------------------------------------------------
Analyzed: King Crimson / Live At The Nakano Sun Plaza, Tokyo, Japan, October 5 & 6, 1995
--------------------------------------------------------------------------------

DR         Peak         RMS     Duration Track
--------------------------------------------------------------------------------
DR8      -56.69 dB   -67.40 dB      0:23 01-Intro
DR21      -1.62 dB   -29.01 dB      2:33 02-Walk On
DR16      -1.06 dB   -20.11 dB      2:09 03-Circular lmprov
DR12      -1.13 dB   -14.75 dB      3:58 04-VROOOM
DR12      -1.12 dB   -14.14 dB      2:36 05-Coda Marine 475
DR12      -0.89 dB   -15.42 dB      5:19 06-Frame By Frame
DR12      -1.10 dB   -15.36 dB      6:53 07-Dinosaur
DR12      -2.35 dB   -17.60 dB      5:42 08-One Time
DR11      -1.08 dB   -13.19 dB      6:16 09-Red
DR14      -1.00 dB   -19.58 dB      7:26 10-B'Boom
DR12      -1.05 dB   -15.70 dB      6:20 11-THRAK
DR13      -2.27 dB   -16.75 dB      3:30 12-Matte Kudasai
DR12      -1.21 dB   -14.38 dB      4:14 13-Three Of A Perfect Pair
DR11      -1.17 dB   -13.59 dB      4:58 14-VROOOM VROOOM
DR12      -1.21 dB   -14.91 dB      4:52 15-Sex Sleep Eat Drink Dream
DR13      -1.63 dB   -20.27 dB      2:19 16-lmprov Two Sticks
DR12      -1.31 dB   -15.11 dB      4:00 17-Elephant Talk
DR11      -0.98 dB   -15.43 dB      6:41 18-Indiscipline
DR11      -1.27 dB   -17.23 dB      3:26 19-The Talking Drum
DR11      -1.05 dB   -13.12 dB      6:17 20-Larks' Tongues In Aspic Part Two
DR12      -1.10 dB   -14.81 dB      5:48 21-People
DR14      -1.24 dB   -18.30 dB      6:10 22-Walking On Air
--------------------------------------------------------------------------------

Number of tracks:  22
Official DR value: DR12

Samplerate:        48000 Hz
Channels:          2
Bits per sample:   24
Bitrate:           1510 kbps
Codec:             FLAC
================================================================================
->
=========================================================================================================================================================
->
Live At The Warfield Theatre, San Francisco CA, June 26, 1995
->
foobar2000 1.5 / Dynamic Range Meter 1.1.1
log date: 2020-06-16 07:18:39

--------------------------------------------------------------------------------
Analyzed: King Crimson / Live At The Warfield Theatre, San Francisco CA, June 26, 1995
--------------------------------------------------------------------------------

DR         Peak         RMS     Duration Track
--------------------------------------------------------------------------------
DR13      -1.42 dB   -20.43 dB      5:16 01-Red
DR16      -2.32 dB   -26.53 dB      6:14 02-B'Boom
DR14      -0.52 dB   -21.51 dB      5:45 03-THRAK
DR13      -3.21 dB   -24.38 dB      3:41 04-Matte Kudasai
DR13      -1.03 dB   -21.22 dB      4:09 05-VROOOM
DR13      -1.04 dB   -19.84 dB      2:35 06-Coda Marine 475
DR13      -0.74 dB   -19.87 dB      7:10 07-Dinosaur
DR13      -2.09 dB   -22.13 dB      6:11 08-One Time
DR14      -1.25 dB   -21.33 dB      6:16 09-People
DR12      -0.42 dB   -18.75 dB      4:54 10-VROOOM VROOOM
DR13      -7.41 dB   -29.46 dB      2:53 11-lmprov Two Sticks
DR13      -2.19 dB   -21.45 dB      4:16 12-Elephant Talk
DR12      -2.14 dB   -22.81 dB      9:22 13-Indiscipline
DR15      -3.93 dB   -28.36 dB      2:23 14-Prism
DR12      -2.21 dB   -22.22 dB      3:03 15-The Talking Drum
DR13      -0.87 dB   -22.48 dB      9:37 16-Larks' Tangues In Aspic Part Two
DR13      -3.86 dB   -27.49 dB      6:06 17-Walking On Air
--------------------------------------------------------------------------------

Number of tracks:  17
Official DR value: DR13

Samplerate:        48000 Hz
Channels:          6
Bits per sample:   24
Bitrate:           3286 kbps
Codec:             FLAC
================================================================================

foobar2000 1.5 / Dynamic Range Meter 1.1.1
log date: 2020-06-16 07:20:38

--------------------------------------------------------------------------------
Analyzed: King Crimson / Live At The Warfield Theatre, San Francisco CA, June 26, 1995
--------------------------------------------------------------------------------

DR         Peak         RMS     Duration Track
--------------------------------------------------------------------------------
DR9       -0.20 dB   -11.27 dB      5:17 01-Red
DR15      -0.20 dB   -18.36 dB      6:14 02-B'Boom
DR10      -0.20 dB   -12.89 dB      5:45 03-THRAK
DR13      -0.20 dB   -15.87 dB      3:41 04-Matte Kudasai
DR9       -0.20 dB   -12.01 dB      4:10 05-VROOOM
DR9       -0.20 dB   -10.83 dB      2:35 06-Coda Marine 475
DR9       -0.20 dB   -11.97 dB      7:10 07-Dinosaur
DR10      -0.20 dB   -13.59 dB      6:11 08-One Time
DR10      -0.20 dB   -12.01 dB      6:16 09-People
DR10      -0.20 dB   -11.11 dB      4:54 10-VROOOM VROOOM
DR13      -1.08 dB   -19.96 dB      2:53 11-lmprov Two Sticks
DR10      -0.20 dB   -11.98 dB      4:16 12-Elephant Talk
DR9       -0.20 dB   -14.13 dB      9:22 13-Indiscipline
DR15      -0.20 dB   -19.06 dB      2:23 14-Prism
DR10      -0.20 dB   -13.29 dB      3:03 15-The Talking Drum
DR10      -0.20 dB   -13.30 dB      9:37 16-Larks' Tangues In Aspic Part Two
DR15      -0.20 dB   -18.03 dB      6:05 17-Walking On Air
--------------------------------------------------------------------------------

Number of tracks:  17
Official DR value: DR11

Samplerate:        48000 Hz
Channels:          2
Bits per sample:   24
Bitrate:           1499 kbps
Codec:             FLAC
================================================================================
->
=========================================================================================================================================================
->
THRAK EPK
->
foobar2000 1.5 / Dynamic Range Meter 1.1.1
log date: 2020-06-16 07:18:45

--------------------------------------------------------------------------------
Statistics for: 01-Electronic Press Kit
Number of samples: 47955968
Duration: 16:39 
--------------------------------------------------------------------------------

              Channel 1          Channel 2          Channel 3          Channel 4          Channel 5          Channel 6 

Peak Value:     -1.68 dB   ---     -1.54 dB   ---     -0.20 dB   ---    -18.93 dB   ---     -1.66 dB   ---     -1.64 dB   
Avg RMS:       -19.70 dB   ---    -19.71 dB   ---    -16.02 dB   ---    -39.01 dB   ---    -19.28 dB   ---    -19.92 dB   
DR channel:     13.11 dB   ---     12.94 dB   ---     12.78 dB   ---     13.82 dB   ---     13.08 dB   ---     13.67 dB   
--------------------------------------------------------------------------------

Official DR Value: DR13

Samplerate:        48000 Hz
Channels:          6
Bits per sample:   24
Bitrate:           3919 kbps
Codec:             FLAC
================================================================================

foobar2000 1.5 / Dynamic Range Meter 1.1.1
log date: 2020-06-16 07:20:40

--------------------------------------------------------------------------------
Statistics for: 01-Electronic Press Kit
Number of samples: 47956080
Duration: 16:39 
--------------------------------------------------------------------------------

                 Left              Right

Peak Value:     -0.20 dB   ---     -0.20 dB   
Avg RMS:       -14.20 dB   ---    -14.14 dB   
DR channel:     10.71 dB   ---      9.58 dB   
--------------------------------------------------------------------------------

Official DR Value: DR10

Samplerate:        48000 Hz
Channels:          2
Bits per sample:   24
Bitrate:           1610 kbps
Codec:             FLAC
================================================================================
->
=========================================================================================================================================================
->
Tony's Road Movies
->
foobar2000 1.5 / Dynamic Range Meter 1.1.1
log date: 2020-06-16 07:18:52

--------------------------------------------------------------------------------
Analyzed: King Crimson / Tony's Road Movies
--------------------------------------------------------------------------------

DR         Peak         RMS     Duration Track
--------------------------------------------------------------------------------
DR7       -0.29 dB   -13.58 dB      6:18 01-The Race
DR11      -1.84 dB   -22.20 dB      0:47 02-Rehearsal I
DR9       -0.89 dB   -15.09 dB      2:57 03-Rehearsal II
DR8       -1.00 dB   -14.52 dB      2:19 04-Dressirng Room
DR9       -1.44 dB   -16.65 dB      0:55 05-Tokyo
DR8       -1.78 dB   -17.01 dB      0:53 06-From the Hotel
DR6       -0.20 dB   -14.45 dB      3:13 07-Mr Bill at the Station
--------------------------------------------------------------------------------

Number of tracks:  7
Official DR value: DR8

Samplerate:        48000 Hz
Channels:          6
Bits per sample:   24
Bitrate:           4157 kbps
Codec:             FLAC
================================================================================

foobar2000 1.5 / Dynamic Range Meter 1.1.1
log date: 2020-06-16 07:20:43

--------------------------------------------------------------------------------
Analyzed: King Crimson / Tony's Road Movies
--------------------------------------------------------------------------------

DR         Peak         RMS     Duration Track
--------------------------------------------------------------------------------
DR8       -0.55 dB   -10.27 dB      6:19 01-The Race
DR13      -0.94 dB   -18.74 dB      0:47 02-Rehearsal I
DR9       -0.37 dB   -11.70 dB      2:57 03-Rehearsal II
DR8       -0.20 dB   -11.09 dB      2:19 04-Dressirng Room
DR10      -0.54 dB   -13.21 dB      0:55 05-Tokyo
DR9       -1.26 dB   -13.41 dB      0:53 06-From the Hotel
DR7       -0.68 dB   -11.10 dB      3:12 07-Mr Bill at the Station
--------------------------------------------------------------------------------

Number of tracks:  7
Official DR value: DR9

Samplerate:        48000 Hz
Channels:          2
Bits per sample:   24
Bitrate:           1725 kbps
Codec:             FLAC
================================================================================




Create a new paste based on this one


Comments: