[ create a new paste ] login | about

Link: http://codepad.org/rigFHoB1    [ raw code | fork ]

Plain Text, pasted on Aug 2:
foobar2000 1.4.4 / Dynamic Range Meter 1.1.1
log date: 2019-08-01 18:24:01

--------------------------------------------------------------------------------
Analyzed: Pink Floyd / The Endless River
--------------------------------------------------------------------------------

DR         Peak         RMS     Duration Track
--------------------------------------------------------------------------------
DR11      -3.63 dB   -22.75 dB      4:26 01-Things Left Unsaid
DR14      -1.58 dB   -20.76 dB      6:15 02-It's What We Do
DR12      -2.81 dB   -25.38 dB      1:58 03-Ebb And Flow
DR13      -1.36 dB   -20.56 dB      4:49 04-Sum
DR12      -1.22 dB   -21.09 dB      2:38 05-Skins
DR12      -3.52 dB   -25.72 dB      1:07 06-Unsung
DR13      -2.61 dB   -20.62 dB      3:15 07-Anisina
DR11      -6.65 dB   -27.00 dB      1:44 08-The Lost Art Of Conversation
DR13      -3.14 dB   -22.82 dB      1:42 09-On Noodle Street
DR11      -3.07 dB   -23.06 dB      1:42 10-Night Light
DR10      -1.56 dB   -18.02 dB      1:57 11-Allons-y (1)
DR10      -4.31 dB   -19.38 dB      1:36 12-Autumn '68
DR10      -1.99 dB   -18.80 dB      1:35 13-Allons-y (2)
DR12       0.00 dB   -18.54 dB      3:26 14-Talkin' Hawkin'
DR13      -1.74 dB   -20.89 dB      3:39 15-Calling
DR11      -1.97 dB   -19.11 dB      1:51 16-Eyes To Pearls
DR13       0.00 dB   -19.43 dB      2:47 17-Surfacing
DR11      -1.66 dB   -19.53 dB      6:33 18-Louder Than Words
--------------------------------------------------------------------------------

Number of tracks:  18
Official DR value: DR12

Samplerate:        96000 Hz
Channels:          6
Bits per sample:   24
Bitrate:           7962 kbps
Codec:             FLAC
================================================================================




Create a new paste based on this one


Comments: