[ create a new paste ] login | about

Link: http://codepad.org/rigqC7Nk    [ raw code | fork ]

Plain Text, pasted on Jan 22:
[CUETools log; Date: 1/22/2016 4:46:19 AM; Version: 2.1.5]
[CTDB TOCID: n3IvcNsRxa2_WuKV5Ai8Lc_GpBU-] found.
Track | CTDB Status
  1   | (16/16) Accurately ripped
  2   | (16/16) Accurately ripped
  3   | (16/16) Accurately ripped
  4   | (16/16) Accurately ripped
  5   | (16/16) Accurately ripped
  6   | (16/16) Accurately ripped
  7   | (16/16) Accurately ripped
  8   | (16/16) Accurately ripped
  9   | (16/16) Accurately ripped
 10   | (16/16) Accurately ripped
 11   | (16/16) Accurately ripped
 12   | (16/16) Accurately ripped
 13   | (16/16) Accurately ripped
 14   | (16/16) Accurately ripped
 15   | (16/16) Accurately ripped
[AccurateRip ID: 00165739-00fdee27-ae095b0f] found.
Track   [  CRC   |   V2   ] Status
 01     [d3398899|4ed62b67] (24+14/42) Accurately ripped
 02     [9eb87e0b|c54fe3ba] (23+14/41) Accurately ripped
 03     [ca56685d|fc4c875b] (24+14/43) Accurately ripped
 04     [be93c4a6|e96c544d] (22+14/40) Accurately ripped
 05     [ebf36404|b9dbf14a] (23+14/41) Accurately ripped
 06     [172f4ae5|328f4da4] (24+14/42) Accurately ripped
 07     [4cfed417|aabb74b3] (24+14/42) Accurately ripped
 08     [23158e49|7694e2da] (23+14/39) Accurately ripped
 09     [af469e19|fc2b3f27] (23+14/39) Accurately ripped
 10     [f73e00da|1e1b6cf7] (23+14/39) Accurately ripped
 11     [b3942a3c|efa3181b] (23+14/39) Accurately ripped
 12     [ea5fb93e|bbb7e011] (24+14/40) Accurately ripped
 13     [23cd86f7|749cc467] (23+14/39) Accurately ripped
 14     [7453693c|75152150] (25+14/41) Accurately ripped
 15     [fc372a50|69758ed3] (24+14/42) Accurately ripped
Offsetted by -18:
 01     [6201e7ad] (02/42) Accurately ripped
 02     [7dde32c7] (02/41) Accurately ripped
 03     [97ddb131] (02/43) Accurately ripped
 04     [bc518f44] (02/40) Accurately ripped
 05     [564c3d4a] (02/41) Accurately ripped
 06     [4c7603f1] (02/42) Accurately ripped
 07     [848e2503] (02/42) Accurately ripped
 08     [3f1bab23] (00/39) No match
 09     [c301be29] (00/39) No match
 10     [fa0b265e] (00/39) No match
 11     [89514808] (00/39) No match
 12     [597456e0] (00/40) No match
 13     [1ff52340] (00/39) No match
 14     [1c75a561] (00/41) No match
 15     [4c4bbdda] (02/42) Accurately ripped
Offsetted by 6:
 01     [f8f6be3d] (00/42) No match (V2 was not tested)
 02     [a9abec77] (00/41) No match (V2 was not tested)
 03     [85d3fac1] (00/43) No match (V2 was not tested)
 04     [bf54811c] (00/40) No match (V2 was not tested)
 05     [1dd5c642] (00/41) No match (V2 was not tested)
 06     [b017b7e1] (00/42) No match (V2 was not tested)
 07     [8fcf0e73] (00/42) No match (V2 was not tested)
 08     [6f1384ab] (00/39) No match (V2 was not tested)
 09     [535d9369] (00/39) No match (V2 was not tested)
 10     [4ba449ae] (00/39) No match (V2 was not tested)
 11     [16ffcaf8] (00/39) No match (V2 was not tested)
 12     [c558da08] (00/40) No match (V2 was not tested)
 13     [559b0f03] (00/39) No match (V2 was not tested)
 14     [4ea6c5f6] (00/41) No match (V2 was not tested)
 15     [36daf922] (00/42) No match (V2 was not tested)

Track Peak [ CRC32  ] [W/O NULL] [  LOG   ]
 --  100.0 [F4D2C821] [CA9097DD]           
 01  100.0 [45F275C5] [B428628B]   CRC32   
 02  100.0 [C6E3515E] [AD580DE2]   CRC32   
 03  100.0 [384E3392] [4C1C8290]   CRC32   
 04   96.7 [5345196D] [8199D212]   CRC32   
 05   97.3 [1A967772] [9B3EF689]   CRC32   
 06  100.0 [4662A064] [C6E6C8DC]   CRC32   
 07  100.0 [C48F8092] [E8DAE693]   CRC32   
 08  100.0 [1C9E6BA2] [42973C64]   CRC32   
 09  100.0 [62E47858] [35CA4747]   CRC32   
 10  100.0 [CB008AE9] [F59C1AC6]   CRC32   
 11  100.0 [05E4A11E] [6F21F884]   CRC32   
 12   96.7 [F6895626] [5DF2D804]   CRC32   
 13   95.9 [B3DBD1F9] [C44C7CB5]   CRC32   
 14   78.7 [CCC7B25C] [22497123]   CRC32   
 15   87.8 [550FC22E] [D6D643AC]   CRC32   



Create a new paste based on this one


Comments: