[ create a new paste ] login | about

Link: http://codepad.org/rjITYe7r    [ raw code | fork ]

Plain Text, pasted on Jul 31:
foobar2000 1.3.17 / Dynamic Range Meter 1.1.1
log date: 2018-06-15 14:03:44

--------------------------------------------------------------------------------
Analyzed: DAVID BOWIE / LET'S DANCE
--------------------------------------------------------------------------------

DR         Peak         RMS     Duration Track
--------------------------------------------------------------------------------
DR12      -4.86 dB   -18.58 dB      4:48 01-Modern Love
DR13      -5.02 dB   -19.03 dB      5:33 02-China Girl
DR13      -3.91 dB   -19.10 dB      7:38 03-Let's Dance
DR13      -4.18 dB   -19.86 dB      3:10 04-Without You
DR13      -3.44 dB   -18.86 dB      5:14 05-Ricochet
DR13      -3.75 dB   -19.24 dB      4:25 06-Criminal World
DR13      -3.51 dB   -18.07 dB      5:10 07-Cat People (Putting Out Fire) 
DR15      -2.50 dB   -19.46 dB      3:51 08-Shake It 
--------------------------------------------------------------------------------

Number of tracks:  8
Official DR value: DR13

Samplerate:        2822400 Hz / PCM Samplerate: 176400 Hz
Channels:          2
Bits per sample:   1
Bitrate:           5645 kbps
Codec:             DSD64
================================================================================




Create a new paste based on this one


Comments: