[ create a new paste ] login | about

Link: http://codepad.org/rjRra6UU    [ raw code | fork ]

Plain Text, pasted on Dec 18:
foobar2000 1.5 / Dynamic Range Meter 1.1.1
log date: 2019-12-18 17:26:27

--------------------------------------------------------------------------------
Analyzed: YMO / Service
--------------------------------------------------------------------------------

DR         Peak         RMS     Duration Track
--------------------------------------------------------------------------------
DR6       -5.74 dB   -13.61 dB      3:30 01-Limbo
DR11      -5.85 dB   -22.49 dB      4:23 02-S.E.T.-1
DR7       -5.80 dB   -14.03 dB      4:41 03-The Madmen
DR10      -5.89 dB   -20.12 dB      1:24 04-S.E.T.-2
DR7       -5.65 dB   -14.33 dB      4:28 05-Chinese Whispers
DR16      -5.92 dB   -26.07 dB      4:17 06-S.E.T.-3
DR6       -5.70 dB   -13.28 dB      4:43 07-You've Got To Help Yourself
DR10      -5.95 dB   -21.21 dB      5:54 08-S.E.T.+YMO
DR6       -5.69 dB   -13.91 dB      4:20 09-Shadows On The Ground
DR12      -5.73 dB   -19.63 dB      3:25 10-S.E.T.-4
DR7       -5.85 dB   -13.68 dB      3:37 11-See-Through
DR13      -6.01 dB   -23.85 dB      4:09 12-S.E.T. Muramatsuri
DR6       -5.75 dB   -13.36 dB      5:13 13-Perspective
DR10      -6.02 dB   -19.56 dB      0:47 14-S.E.T.-5
--------------------------------------------------------------------------------

Number of tracks:  14
Official DR value: DR9

Samplerate:        2822400 Hz / PCM Samplerate: 44100 Hz
Channels:          2
Bits per sample:   1
Bitrate:           5645 kbps
Codec:             DSD64
================================================================================




Create a new paste based on this one


Comments: