[ create a new paste ] login | about

Link: http://codepad.org/rySuGPKl    [ raw code | fork ]

Plain Text, pasted on Mar 17:
Exact Audio Copy V0.99 prebeta 5 from 4. May 2009

EAC extraction logfile from 26. September 2015, 11:34

Cliff Richard / 75 From 75 (CD 2)

Used drive  : ATAPI   iHAS122   C   Adapter: 1  ID: 1

Read mode               : Secure
Utilize accurate stream : Yes
Defeat audio cache      : Yes
Make use of C2 pointers : No

Read offset correction                      : 6
Overread into Lead-In and Lead-Out          : No
Fill up missing offset samples with silence : Yes
Delete leading and trailing silent blocks   : No
Null samples used in CRC calculations       : Yes
Used interface                              : Native Win32 interface for Win NT & 2000

Used output format : Internal WAV Routines
Sample format      : 44.100 Hz; 16 Bit; Stereo


TOC of the extracted CD

     Track |   Start  |  Length  | Start sector | End sector 
    ---------------------------------------------------------
        1  |  0:00.00 |  3:00.03 |         0    |    13502   
        2  |  3:00.03 |  2:31.42 |     13503    |    24869   
        3  |  5:31.45 |  2:39.15 |     24870    |    36809   
        4  |  8:10.60 |  2:40.28 |     36810    |    48837   
        5  | 10:51.13 |  2:14.49 |     48838    |    58936   
        6  | 13:05.62 |  2:54.01 |     58937    |    71987   
        7  | 15:59.63 |  2:30.67 |     71988    |    83304   
        8  | 18:30.55 |  2:26.07 |     83305    |    94261   
        9  | 20:56.62 |  2:47.41 |     94262    |   106827   
       10  | 23:44.28 |  2:46.32 |    106828    |   119309   
       11  | 26:30.60 |  3:01.05 |    119310    |   132889   
       12  | 29:31.65 |  3:55.27 |    132890    |   150541   
       13  | 33:27.17 |  3:32.65 |    150542    |   166506   
       14  | 37:00.07 |  4:11.01 |    166507    |   185332   
       15  | 41:11.08 |  3:40.35 |    185333    |   201867   
       16  | 44:51.43 |  3:33.68 |    201868    |   217910   
       17  | 48:25.36 |  3:39.54 |    217911    |   234389   
       18  | 52:05.15 |  3:37.53 |    234390    |   250717   
       19  | 55:42.68 |  2:54.05 |    250718    |   263772   
       20  | 58:36.73 |  3:21.68 |    263773    |   278915   
       21  | 61:58.66 |  3:25.45 |    278916    |   294335   
       22  | 65:24.36 |  3:14.71 |    294336    |   308956   
       23  | 68:39.32 |  3:12.39 |    308957    |   323395   
       24  | 71:51.71 |  4:08.29 |    323396    |   342024   
       25  | 76:00.25 |  3:56.53 |    342025    |   359777   


Range status and errors

Selected range

     Filename C:\Users\arthu\Desktop\Cliff Richard - 75 From 75 (CD 2).wav

     Peak level 93.1 %
     Range quality 100.0 %
     Test CRC 591B12C7
     Copy CRC 591B12C7
     Copy OK

No errors occurred

 
AccurateRip summary
 
Track  1  not present in database
Track  2  not present in database
Track  3  not present in database
Track  4  not present in database
Track  5  not present in database
Track  6  not present in database
Track  7  not present in database
Track  8  not present in database
Track  9  not present in database
Track 10  not present in database
Track 11  not present in database
Track 12  not present in database
Track 13  not present in database
Track 14  not present in database
Track 15  not present in database
Track 16  not present in database
Track 17  not present in database
Track 18  not present in database
Track 19  not present in database
Track 20  not present in database
Track 21  not present in database
Track 22  not present in database
Track 23  not present in database
Track 24  not present in database
Track 25  not present in database
 
None of the tracks are present in the AccurateRip database

End of status report



Create a new paste based on this one


Comments: