[ create a new paste ] login | about

Link: http://codepad.org/rzsXb95a    [ raw code | fork ]

Plain Text, pasted on Mar 28:
Exact Audio Copy V0.99 prebeta 5 from 4. May 2009

Отчёт EAC об извлечении, выполненном 13. августа 2010, 12:26

The Dave Brubeck Quartet / Concord On A Summer Night

Дисковод: PIONEER DVD-RW  DVR-112D   Adapter: 1  ID: 0

Режим чтения                 : Достоверность
Использование точного потока : Да
Отключение кэша аудио        : Да
Использование указателей C2  : Нет

Коррекция смещения при чтении                     : 48
Способность читать области Lead-in и Lead-out     : Нет
Заполнение пропущенных сэмплов тишиной            : Да
Удаление блоков с тишиной в начале и конце        : Нет
При вычислениях CRC использовались нулевые сэмплы : Да
Интерфейс                                         : Встроенный Win32-интерфейс для Win NT/2000

Выходной формат          : Пользовательский кодировщик
Выбранный битрейт        : 128 kBit/s
Качество                 : Высокий
Добавление ID3-тэга      : Нет
Утилита сжатия           : C:\Program Files\Exact Audio Copy\Flac\flac.exe
Дополнительные параметры : -8 -V %s


TOC извлечённого CD

     Трек |   Старт  | Длительность | Начальный сектор | Конечный сектор 
    ---------------------------------------------------------------------
       1  |  0:00.37 |    6:03.38   |          37      |      27299      
       2  |  6:04.00 |    9:00.60   |       27300      |      67859      
       3  | 15:04.60 |    7:21.70   |       67860      |     101004      
       4  | 22:26.55 |    8:00.40   |      101005      |     137044      
       5  | 30:27.20 |    9:08.62   |      137045      |     178206      


Характеристики диапазона извлечения и сообщения об ошибках

Выбранный диапазон

     Имя файла G:\torrents\M.Music\The Dave Brubeck Quartet - Concord On A Summer Night\The Dave Brubeck Quartet - Concord On A Summer Night.wav

     Пиковый уровень 94.8 %
     Качество диапазона 100.0 %
     CRC теста BBDFB321
     CRC копии BBDFB321
     Копирование... OK

Ошибок не произошло

 
AccurateRip: сводка
 
Трек  1  точное извлечение (доверие 7)  [418000BD]
Трек  2  точное извлечение (доверие 7)  [03A3F4FA]
Трек  3  точное извлечение (доверие 7)  [DEFB9BE1]
Трек  4  точное извлечение (доверие 7)  [B6F1EB97]
Трек  5  точное извлечение (доверие 8)  [1DA12542]
 
Все треки извлечены точно

Конец отчёта



Create a new paste based on this one


Comments: