[ create a new paste ] login | about

Link: http://codepad.org/s2fDd4wp    [ raw code | fork ]

Plain Text, pasted on Feb 15:
foobar2000 1.3.17 / Dynamic Range Meter 1.1.1
log date: 2018-02-14 14:51:16

--------------------------------------------------------------------------------
Analyzed: Harry Belafonte / Calypso
--------------------------------------------------------------------------------

DR         Peak         RMS     Duration Track
--------------------------------------------------------------------------------
DR14      -5.42 dB   -22.67 dB      3:07 01-Day O (Banana Boat Song)
DR11      -9.18 dB   -20.98 dB      2:52 02-I Do Adore Her
DR10      -9.88 dB   -22.09 dB      3:06 03-Jamaica Farewell
DR13      -5.78 dB   -20.19 dB      2:36 04-Will His Love Be Like His Rum?
DR10      -9.54 dB   -20.68 dB      3:18 05-Dolly Dawn
DR14      -6.33 dB   -24.96 dB      2:05 06-Star O
DR12      -6.05 dB   -20.09 dB      2:56 07-The Jack-Ass Song
DR13      -5.95 dB   -21.44 dB      2:41 08-Hosanna
DR10     -11.01 dB   -22.96 dB      3:09 09-Come Back Liza
DR10     -10.61 dB   -22.84 dB      2:49 10-Brown Skin Girl
DR14      -5.62 dB   -22.08 dB      3:37 11-Man Smart (Woman Smarter)
--------------------------------------------------------------------------------

Number of tracks:  11
Official DR value: DR12

Samplerate:        2822400 Hz / PCM Samplerate: 176400 Hz
Channels:          2
Bits per sample:   1
Bitrate:           5645 kbps
Codec:             DSD64
================================================================================




Create a new paste based on this one


Comments: