[ create a new paste ] login | about

Link: http://codepad.org/s65kj04n    [ raw code | fork ]

Plain Text, pasted on Jun 7:
foobar2000 1.3 / Dynamic Range Meter 1.1.1
log date: 2014-10-21 13:04:48

--------------------------------------------------------------------------------
Analyzed: Walter Susskind & The Saint Louis Symphony Orchestra / Smetana: Má Vlast (2004 MFSL Hybrid SACD)
--------------------------------------------------------------------------------

DR         Peak         RMS     Duration Track
--------------------------------------------------------------------------------
DR11      -0.68 dB   -25.30 dB     14:32 01-Vyšehrad
DR11      -0.01 dB   -24.68 dB     12:14 02-Vltava (The Moldau)
DR11      -1.77 dB   -24.79 dB      9:57 03-Šárka
DR11      -0.88 dB   -23.97 dB     12:04 04-Z českých luhů a hájů (From Bohemia's Woods And Fields)
DR10      -0.87 dB   -24.18 dB     12:44 05-Tábor
DR11      -0.17 dB   -24.65 dB     14:29 06-Blaník
--------------------------------------------------------------------------------

Number of tracks:  6
Official DR value: DR11

Samplerate:        88200 Hz
Channels:          6
Bits per sample:   24
Bitrate:           4710 kbps
Codec:             FLAC
================================================================================




Create a new paste based on this one


Comments: