[ create a new paste ] login | about

Link: http://codepad.org/s8BI6Ntj    [ raw code | fork ]

Plain Text, pasted on Mar 21:
foobar2000 1.4.1 / Dynamic Range Meter 1.1.1
log date: 2019-03-21 12:47:00

--------------------------------------------------------------------------------
Analyzed: Tears For Fears / Songs From The Big Chair
--------------------------------------------------------------------------------

DR         Peak         RMS     Duration Track
--------------------------------------------------------------------------------
DR11      -5.24 dB   -18.85 dB      6:34 01-Shout
DR12      -4.04 dB   -19.21 dB      6:32 02-The Working Hour
DR12      -5.49 dB   -19.11 dB      4:11 03-Everybody Wants To Rule The World
DR14      -4.62 dB   -20.62 dB      5:07 04-Mothers Talk
DR12      -8.00 dB   -23.72 dB      4:55 05-I Believe
DR12      -6.18 dB   -19.70 dB      2:38 06-Broken
DR12      -3.97 dB   -18.25 dB      5:02 07-Head Over Heels / Broken (Live)
DR11      -6.51 dB   -21.28 dB      6:53 08-Listen
--------------------------------------------------------------------------------

Number of tracks:  8
Official DR value: DR12

Samplerate:        2822400 Hz / PCM Samplerate: 176400 Hz
Channels:          2
Bits per sample:   1
Bitrate:           5645 kbps
Codec:             DSD64
================================================================================




Create a new paste based on this one


Comments: