[ create a new paste ] login | about

Link: http://codepad.org/s8zdg8ST    [ raw code | fork ]

Plain Text, pasted on Jul 17:
[CUETools log; Date: 7/16/2017 6:56:43 PM; Version: 2.1.5]
[CTDB TOCID: ZzIbSvzFyPyJrGHtmHrY3VAmMQk-] found.
Track | CTDB Status
  1   | (72/72) Accurately ripped
  2   | (72/72) Accurately ripped
  3   | (72/72) Accurately ripped
  4   | (72/72) Accurately ripped
  5   | (71/72) Accurately ripped
  6   | (72/72) Accurately ripped
  7   | (72/72) Accurately ripped
  8   | (72/72) Accurately ripped
  9   | (72/72) Accurately ripped
 10   | (71/72) Accurately ripped
 11   | (72/72) Accurately ripped
 12   | (72/72) Accurately ripped
 13   | (72/72) Accurately ripped
 14   | (72/72) Accurately ripped
 15   | (72/72) Accurately ripped
 16   | (72/72) Accurately ripped
 17   | (72/72) Accurately ripped
 18   | (72/72) Accurately ripped
 19   | (72/72) Accurately ripped
 20   | (71/72) Accurately ripped
[AccurateRip ID: 00392552-03478d9c-2e120314] found.
Track   [  CRC   |   V2   ] Status
 01     [dec3776b|628b05c6] (053+056/109) Accurately ripped
 02     [d744d9f3|778c7d4e] (054+056/110) Accurately ripped
 03     [3b59dd96|3e369524] (052+056/108) Accurately ripped
 04     [584ad888|40bbfb10] (053+056/109) Accurately ripped
 05     [2b29f6b6|69b02cf2] (056+056/112) Accurately ripped
 06     [ef02a2bf|f33ccbc2] (053+056/109) Accurately ripped
 07     [f559c38d|7e92f52e] (054+056/110) Accurately ripped
 08     [0f55faeb|cc949ee8] (052+056/108) Accurately ripped
 09     [d1681f48|167eb5b7] (052+054/106) Accurately ripped
 10     [f3b61d18|67f2b0e5] (054+054/108) Accurately ripped
 11     [c18a4463|5ea87461] (051+055/106) Accurately ripped
 12     [a4b2bb28|626c7cbe] (054+054/108) Accurately ripped
 13     [2cfbae75|7869d0fd] (052+052/104) Accurately ripped
 14     [13f08423|7764c723] (051+052/103) Accurately ripped
 15     [07b78f1c|c6f5697a] (052+055/107) Accurately ripped
 16     [82b24ef4|c2564ea7] (051+055/106) Accurately ripped
 17     [bc9e5c42|9ed98f9e] (050+054/104) Accurately ripped
 18     [6e783e13|9b501916] (050+054/104) Accurately ripped
 19     [7f0c179d|02f2c6d5] (049+054/103) Accurately ripped
 20     [6b8f3511|16eb7fef] (050+054/104) Accurately ripped

Track Peak [ CRC32  ] [W/O NULL] [  LOG   ]
 --  100.0 [43A35D95] [53A1FE5A]           
 01   99.8 [92EC651D] [4102BAC7]   CRC32   
 02   98.0 [F8AD7115] [D14AD144]   CRC32   
 03   99.9 [9839FDEC] [5AC33E76]   CRC32   
 04  100.0 [12A716E5] [D4C7DF1A]   CRC32   
 05   97.5 [5F2DDE6F] [5C2F9083]   CRC32   
 06   98.8 [CC685D58] [87995EB8]   CRC32   
 07   99.9 [60075CFC] [896DB288]   CRC32   
 08   99.9 [1E8D7343] [49155D07]   CRC32   
 09  100.0 [E88E7A48] [61537965]   CRC32   
 10   98.8 [80F93EE0] [9CA681DE]   CRC32   
 11   99.9 [B823A768] [0799E941]   CRC32   
 12  100.0 [E31555E5] [4B9DC734]   CRC32   
 13   99.9 [B433CBE1] [45C0A0DD]   CRC32   
 14   77.8 [58BE7D86] [C1117F21]   CRC32   
 15   99.9 [B468C6E2] [54AAD472]   CRC32   
 16   99.8 [70354DF7] [8F911969]   CRC32   
 17   99.9 [F497A671] [1633685B]   CRC32   
 18  100.0 [91F995A2] [95E068AB]   CRC32   
 19   99.7 [685FED9E] [192E6099]   CRC32   
 20   98.8 [E9A90816] [F80163C7]   CRC32   



Create a new paste based on this one


Comments: