[ create a new paste ] login | about

Link: http://codepad.org/s9qrPMrN    [ raw code | fork ]

Plain Text, pasted on Feb 24:
[CUETools log; Date: 2/24/2018 9:19:04 AM; Version: 2.1.5]
[CTDB TOCID: 5Jr3EEQwATZdKWhO43XwbbpxMEk-] found.
Track | CTDB Status
  1   | (134/135) Accurately ripped
  2   | (135/135) Accurately ripped
  3   | (135/135) Accurately ripped
  4   | (134/135) Accurately ripped
  5   | (134/135) Accurately ripped
  6   | (134/135) Accurately ripped
  7   | (133/135) Accurately ripped
[AccurateRip ID: 000b9a0b-0043d70c-46091107] found.
Track   [  CRC   |   V2   ] Status
 01     [e41485a8|0ed21c10] (08+67/75) Accurately ripped
 02     [420f788d|d6cd37d9] (08+68/76) Accurately ripped
 03     [332ba30a|b30053b6] (08+68/76) Accurately ripped
 04     [a68b53aa|1c22260b] (08+68/76) Accurately ripped
 05     [69359f7f|330568e2] (08+68/76) Accurately ripped
 06     [42568d01|546ca6c7] (08+68/76) Accurately ripped
 07     [ea84ce8b|3c522e4e] (07+67/74) Accurately ripped

Track Peak [ CRC32  ] [W/O NULL] [  LOG   ]
 --   99.2 [83126285] [73EC3FB4]           
 01   76.7 [1DBE5243] [93882CF6]   CRC32   
 02   71.5 [F0B51E73] [14A2A39B]   CRC32   
 03   98.8 [09183AA7] [0EAA7849]   CRC32   
 04   99.2 [CF08A8DE] [2259CC3F]   CRC32   
 05   69.5 [14AF869C] [ABBE3C26]   CRC32   
 06   68.2 [D4D354E6] [50C26D10]   CRC32   
 07   77.1 [758FDD89] [21AA9E7C]   CRC32   



Create a new paste based on this one


Comments: