[ create a new paste ] login | about

Link: http://codepad.org/sB1tTbtB    [ raw code | fork ]

Plain Text, pasted on Sep 12:
foobar2000 1.2.2 / Dynamic Range Meter 1.1.1
log date: 2013-06-19 14:50:47

--------------------------------------------------------------------------------
Analyzed: Roxy Music / Avalon (2003 Hybrid SACD)
--------------------------------------------------------------------------------

DR         Peak         RMS     Duration Track
--------------------------------------------------------------------------------
DR15      -0.44 dB   -20.59 dB      4:30 01-More Than This
DR13      -2.06 dB   -20.46 dB      5:22 01-More Than This
DR14      -0.01 dB   -18.89 dB      4:30 02-The Space Between
DR14      -0.25 dB   -21.13 dB      4:17 03-Avalon
DR13      -1.71 dB   -22.32 dB      1:45 04-India
DR14      -0.37 dB   -21.07 dB      3:27 05-While My Heart Is Still Beating
DR14      -0.04 dB   -20.04 dB      3:54 06-The Main Thing
DR15      -0.21 dB   -19.74 dB      4:43 07-Take A Chance With Me
DR13      -0.24 dB   -20.47 dB      4:17 08-To Turn You On
DR14      -0.24 dB   -17.22 dB      4:26 09-True To Life
DR9       -7.66 dB   -24.13 dB      1:36 10-Tara
--------------------------------------------------------------------------------

Number of tracks:  11
Official DR value: DR14

Samplerate:        88200 Hz
Channels:          6
Bits per sample:   24
Bitrate:           6250 kbps
Codec:             FLAC
================================================================================




Create a new paste based on this one


Comments: