[ create a new paste ] login | about

Link: http://codepad.org/sGWSUW6e    [ raw code | fork ]

Plain Text, pasted on Mar 9:
Exact Audio Copy V1.3 from 2. September 2016

Отчёт EAC об извлечении, выполненном 10. ноября 2017, 17:22

Various Artists / Rock Tributes - AC/DC - CD 1

Дисковод: PLEXTOR DVDR   PX-L890SA   Adapter: 1  ID: 0

Режим чтения                 : Достоверность
Использование точного потока : Да
Отключение кэша аудио        : Да
Использование указателей C2  : Нет

Коррекция смещения при чтении                     : 6
Способность читать области Lead-in и Lead-out     : Нет
Заполнение пропущенных сэмплов тишиной            : Да
Удаление блоков с тишиной в начале и конце        : Нет
При вычислениях CRC использовались нулевые сэмплы : Да
Интерфейс                                         : Встроенный Win32-интерфейс для Win NT/2000
Обработка зазоров                                 : Добавлено к предыдущему треку

Выходной формат          : Пользовательский кодировщик
Выбранный битрейт        : 896 kBit/s
Качество                 : Высокий
Добавление ID3-тега      : Нет
Утилита сжатия           : C:\Program Files\Exact Audio Copy\Flac\flac.exe
Дополнительные параметры : -V -8 -T "Genre=%genre%" -T "Artist=%artist%" -T "Title=%title%" -T "Album=%albumtitle%" -T "Date=%year%" -T "Tracknumber=%tracknr%" -T "Comment=%comment%" %source%


TOC извлечённого CD

     Трек |   Старт  | Длительность | Начальный сектор | Конечный сектор 
    ---------------------------------------------------------------------
       1  |  0:00.00 |    3:20.15   |           0      |      15014      
       2  |  3:20.15 |    4:13.24   |       15015      |      34013      
       3  |  7:33.39 |    4:32.28   |       34014      |      54441      
       4  | 12:05.67 |    3:21.44   |       54442      |      69560      
       5  | 15:27.36 |    4:34.09   |       69561      |      90119      
       6  | 20:01.45 |    3:41.14   |       90120      |     106708      
       7  | 23:42.59 |    4:36.26   |      106709      |     127434      
       8  | 28:19.10 |    5:09.57   |      127435      |     150666      
       9  | 33:28.67 |    3:46.09   |      150667      |     167625      


Трек  1

     Имя файла E:\Classic Rock & Hard Rock\VA - Rock Tributes 5 CD Box 2006\CD 1 - Rock Tributes - AC DC\01 Tom McNailly - Highway To Hell.wav

     Длина предзазора  0:00:02.00

     Пиковый уровень 100.0 %
     Скорость извлечения 3.8 X
     Качество трека 99.9 %
     CRC теста 980715A9
     CRC копии 980715A9
     Точность не определена (достоверность 2)  [9208B756], AccurateRip вернул [30953D51]  (AR v2)
     Копирование... OK

Трек  2

     Имя файла E:\Classic Rock & Hard Rock\VA - Rock Tributes 5 CD Box 2006\CD 1 - Rock Tributes - AC DC\02 Jazzy J. - Touch Too Much.wav

     Пиковый уровень 100.0 %
     Скорость извлечения 4.1 X
     Качество трека 99.9 %
     CRC теста 90AE0C8B
     CRC копии 90AE0C8B
     Точность не определена (достоверность 2)  [DA72557C], AccurateRip вернул [747ED664]  (AR v2)
     Копирование... OK

Трек  3

     Имя файла E:\Classic Rock & Hard Rock\VA - Rock Tributes 5 CD Box 2006\CD 1 - Rock Tributes - AC DC\03 The Butchers - Back In Black.wav

     Пиковый уровень 100.0 %
     Скорость извлечения 4.6 X
     Качество трека 100.0 %
     CRC теста D77C22DF
     CRC копии D77C22DF
     Точность не определена (достоверность 2)  [E63205B2], AccurateRip вернул [E707432A]  (AR v2)
     Копирование... OK

Трек  4

     Имя файла E:\Classic Rock & Hard Rock\VA - Rock Tributes 5 CD Box 2006\CD 1 - Rock Tributes - AC DC\04 Tom McNailly - Shot Down In Flames.wav

     Пиковый уровень 100.0 %
     Скорость извлечения 4.5 X
     Качество трека 100.0 %
     CRC теста 28BD821C
     CRC копии 28BD821C
     Точность не определена (достоверность 2)  [7657370D], AccurateRip вернул [56670F24]  (AR v2)
     Копирование... OK

Трек  5

     Имя файла E:\Classic Rock & Hard Rock\VA - Rock Tributes 5 CD Box 2006\CD 1 - Rock Tributes - AC DC\05 The Darlicks - Thunderstruck.wav

     Пиковый уровень 100.0 %
     Скорость извлечения 4.6 X
     Качество трека 100.0 %
     CRC теста FB3FC798
     CRC копии FB3FC798
     Точность не определена (достоверность 2)  [15952751], AccurateRip вернул [35B06A70]  (AR v2)
     Копирование... OK

Трек  6

     Имя файла E:\Classic Rock & Hard Rock\VA - Rock Tributes 5 CD Box 2006\CD 1 - Rock Tributes - AC DC\06 The Butchers - You Shook Me All Night Long.wav

     Пиковый уровень 100.0 %
     Скорость извлечения 4.5 X
     Качество трека 100.0 %
     CRC теста 000AA840
     CRC копии 000AA840
     Точность не определена (достоверность 2)  [3A61963C], AccurateRip вернул [FA56B84D]  (AR v2)
     Копирование... OK

Трек  7

     Имя файла E:\Classic Rock & Hard Rock\VA - Rock Tributes 5 CD Box 2006\CD 1 - Rock Tributes - AC DC\07 Tom McNailly - Sin City.wav

     Пиковый уровень 100.0 %
     Скорость извлечения 4.7 X
     Качество трека 100.0 %
     CRC теста FA77343C
     CRC копии FA77343C
     Точность не определена (достоверность 2)  [27AFEFE6], AccurateRip вернул [86DC84AB]  (AR v2)
     Копирование... OK

Трек  8

     Имя файла E:\Classic Rock & Hard Rock\VA - Rock Tributes 5 CD Box 2006\CD 1 - Rock Tributes - AC DC\08 Boris Black - She's Got Balls.wav

     Пиковый уровень 100.0 %
     Скорость извлечения 4.3 X
     Качество трека 99.9 %
     CRC теста 327DD931
     CRC копии 327DD931
     Точность не определена (достоверность 2)  [8544DC50], AccurateRip вернул [FCF65748]  (AR v2)
     Копирование... OK

Трек  9

     Имя файла E:\Classic Rock & Hard Rock\VA - Rock Tributes 5 CD Box 2006\CD 1 - Rock Tributes - AC DC\09 Jazzy J. - Dirty Deeds Done Dirt Cheap.wav

     Пиковый уровень 100.0 %
     Скорость извлечения 3.9 X
     Качество трека 99.9 %
     CRC теста 93F73AEE
     CRC копии 93F73AEE
     Точность не определена (достоверность 2)  [532ABB11], AccurateRip вернул [1E1D05BE]  (AR v2)
     Копирование... OK


Ни один трек не прошёл проверки на точность
В вашей базе может быть иной вариант штамповки диска

Ошибок не произошло

Конец отчёта

---- CUETools DB Plugin V2.1.6

[CTDB TOCID: kdY3ht8mcXcdFCx3zGNlJVMgeNE-] found
Submit result: kdY3ht8mcXcdFCx3zGNlJVMgeNE- has been confirmed
Track | CTDB Status
  1   | (5/6) Accurately ripped
  2   | (5/6) Accurately ripped
  3   | (5/6) Accurately ripped
  4   | (5/6) Accurately ripped
  5   | (5/6) Accurately ripped
  6   | (5/6) Accurately ripped
  7   | (5/6) Accurately ripped
  8   | (5/6) Accurately ripped
  9   | (5/6) Accurately ripped


==== Контрольная сумма отчёта F23AE55A1255C795FF48DE5175B785051680CF83CCBB8647A77727B7A059953E ====



Create a new paste based on this one


Comments: