[ create a new paste ] login | about

Link: http://codepad.org/sH3qhMrH    [ raw code | fork ]

Plain Text, pasted on Aug 27:
foobar2000 1.3.17 / Dynamic Range Meter 1.1.1
log date: 2018-08-27 15:48:50

--------------------------------------------------------------------------------
Analyzed: Steely Dan / Katy Lied  [MFSL 1-007]
--------------------------------------------------------------------------------

DR         Peak         RMS     Duration Track
--------------------------------------------------------------------------------
DR15      -0.93 dB   -19.43 dB      3:40 01-Black Friday
DR15      -2.00 dB   -20.23 dB      3:21 02-Bad Sneakers
DR13      -2.49 dB   -19.69 dB      3:05 03-Rose Darling
DR16      -1.35 dB   -19.39 dB      3:16 04-Daddy Don't Live in That New York City No More
DR15      -3.69 dB   -21.37 dB      3:54 05-Doctor Wu
DR14      -3.88 dB   -21.80 dB      3:47 06-Everyone's Gone to the Movies
DR14      -1.80 dB   -20.14 dB      4:15 07-Your Gold Teeth II
DR15      -0.24 dB   -18.49 dB      3:02 08-Chain Lightning
DR12      -2.08 dB   -18.31 dB      3:56 09-Any World (That I'm Welcome To)
DR14      -3.99 dB   -20.68 dB      3:16 10-Throw Back the Little Ones
--------------------------------------------------------------------------------

Number of tracks:  10
Official DR value: DR14

Samplerate:        96000 Hz
Channels:          2
Bits per sample:   24
Bitrate:           2690 kbps
Codec:             FLAC
================================================================================




Create a new paste based on this one


Comments: