[ create a new paste ] login | about

Link: http://codepad.org/sPjbeFsW    [ raw code | fork ]

Plain Text, pasted on Oct 4:
Exact Audio Copy V0.99 prebeta 3 from 28. July 2007

EAC extraction logfile from 30. August 2009, 20:55

Paul Young / Love Songs

Used drive  : Optiarc DVD RW AD-7173S   Adapter: 3  ID: 0

Read mode               : Secure
Utilize accurate stream : Yes
Defeat audio cache      : Yes
Make use of C2 pointers : No

Read offset correction                      : 48
Overread into Lead-In and Lead-Out          : No
Fill up missing offset samples with silence : Yes
Delete leading and trailing silent blocks   : No
Null samples used in CRC calculations       : Yes
Used interface                              : Native Win32 interface for Win NT & 2000

Used output format : Internal WAV Routines
Sample format      : 44.100 Hz; 16 Bit; Stereo


TOC of the extracted CD

     Track |   Start  |  Length  | Start sector | End sector 
    ---------------------------------------------------------
        1  |  0:00.00 |  5:24.25 |         0    |    24324   
        2  |  5:24.25 |  4:18.00 |     24325    |    43674   
        3  |  9:42.25 |  3:54.00 |     43675    |    61224   
        4  | 13:36.25 |  4:10.12 |     61225    |    79986   
        5  | 17:46.37 |  4:59.00 |     79987    |   102411   
        6  | 22:45.37 |  4:39.63 |    102412    |   123399   
        7  | 27:25.25 |  4:26.50 |    123400    |   143399   
        8  | 31:52.00 |  3:56.50 |    143400    |   161149   
        9  | 35:48.50 |  4:54.50 |    161150    |   183249   
       10  | 40:43.25 |  4:39.12 |    183250    |   204186   
       11  | 45:22.37 |  4:59.63 |    204187    |   226674   
       12  | 50:22.25 |  3:14.00 |    226675    |   241224   
       13  | 53:36.25 |  5:20.25 |    241225    |   265249   
       14  | 58:56.50 |  5:09.00 |    265250    |   288424   
       15  | 64:05.50 |  4:10.25 |    288425    |   307199   
       16  | 68:16.00 |  4:18.00 |    307200    |   326549   
       17  | 72:34.00 |  3:01.47 |    326550    |   340171   


Range status and errors

Selected range

     Filename D:\CD\Paul Young - Love Songs.wav

     Peak level 100.0 %
     Range quality 100.0 %
     Test CRC A446CE3C
     Copy CRC A446CE3C
     Copy OK

No errors occurred

 
AccurateRip summary
 
Track  1  accurately ripped (confidence 18)  [BFD42C3E]
Track  2  accurately ripped (confidence 18)  [1DDF3111]
Track  3  accurately ripped (confidence 17)  [CCB2E058]
Track  4  accurately ripped (confidence 18)  [F3CF9A50]
Track  5  accurately ripped (confidence 17)  [EE932DA8]
Track  6  accurately ripped (confidence 16)  [D69B1358]
Track  7  accurately ripped (confidence 17)  [1853C96D]
Track  8  accurately ripped (confidence 16)  [CAB7D7F9]
Track  9  accurately ripped (confidence 17)  [73E11669]
Track 10  accurately ripped (confidence 17)  [1370EE6A]
Track 11  accurately ripped (confidence 16)  [B90F8381]
Track 12  accurately ripped (confidence 17)  [37474144]
Track 13  accurately ripped (confidence 17)  [C7E13B52]
Track 14  accurately ripped (confidence 14)  [F49184FB]
Track 15  accurately ripped (confidence 15)  [CAD2127D]
Track 16  accurately ripped (confidence 16)  [FBEC481C]
Track 17  accurately ripped (confidence 16)  [D850EB66]
 
All tracks accurately ripped

End of status report



Create a new paste based on this one


Comments: