[ create a new paste ] login | about

Link: http://codepad.org/sQk0Q03o    [ raw code | fork ]

Plain Text, pasted on May 13:
Exact Audio Copy V0.99 prebeta 4 from 23. January 2008

EAC extraction logfile from 29. July 2010, 13:49

Various / Grease (30th Anniversary Deluxe Edition) [CD2]

Used drive  : ATAPI   DVD DW 8X16X8X16   Adapter: 0  ID: 2

Read mode               : Secure
Utilize accurate stream : Yes
Defeat audio cache      : Yes
Make use of C2 pointers : No

Read offset correction                      : 618
Overread into Lead-In and Lead-Out          : No
Fill up missing offset samples with silence : Yes
Delete leading and trailing silent blocks   : No
Null samples used in CRC calculations       : Yes
Used interface                              : Native Win32 interface for Win NT & 2000

Used output format : Internal WAV Routines
Sample format      : 44.100 Hz; 16 Bit; Stereo


TOC of the extracted CD

     Track |   Start  |  Length  | Start sector | End sector 
    ---------------------------------------------------------
        1  |  0:00.00 |  3:24.53 |         0    |    15352   
        2  |  3:24.53 |  3:36.61 |     15353    |    31613   
        3  |  7:01.39 |  3:04.26 |     31614    |    45439   
        4  | 10:05.65 |  2:34.00 |     45440    |    56989   
        5  | 12:39.65 |  2:31.60 |     56990    |    68374   
        6  | 15:11.50 |  3:21.50 |     68375    |    83499   
        7  | 18:33.25 |  0:19.41 |     83500    |    84965   
        8  | 18:52.66 |  4:50.13 |     84966    |   106728   
        9  | 23:43.04 |  4:49.22 |    106729    |   128425   
       10  | 28:32.26 |  3:47.00 |    128426    |   145450   
       11  | 32:19.26 |  3:38.00 |    145451    |   161800   
       12  | 35:57.26 |  3:24.73 |    161801    |   177173   


Range status and errors

Selected range

     Filename C:\BlondStyle\Grease (30th Anniversary Deluxe Edition) [CD2].wav

     Peak level 100.0 %
     Range quality 99.9 %
     Test CRC E6D89151
     Copy CRC E6D89151
     Copy OK

No errors occurred

 
AccurateRip summary
 
Track  1  accurately ripped (confidence 9)  [C82F60C1]
Track  2  accurately ripped (confidence 9)  [3A4479D3]
Track  3  accurately ripped (confidence 9)  [AE04C065]
Track  4  accurately ripped (confidence 9)  [8B5792BE]
Track  5  accurately ripped (confidence 9)  [8C928711]
Track  6  accurately ripped (confidence 9)  [7264E392]
Track  7  accurately ripped (confidence 9)  [D164E7FC]
Track  8  accurately ripped (confidence 9)  [F4DA175F]
Track  9  accurately ripped (confidence 8)  [0A8BC90D]
Track 10  accurately ripped (confidence 8)  [25763B4A]
Track 11  accurately ripped (confidence 8)  [0D6EDB19]
Track 12  accurately ripped (confidence 8)  [4BB43F64]
 
All tracks accurately ripped

End of status report



Create a new paste based on this one


Comments: