[ create a new paste ] login | about

Link: http://codepad.org/sSaV5gsU    [ raw code | fork ]

Plain Text, pasted on Dec 11:
Exact Audio Copy V0.99 prebeta 4 from 23. January 2008

Отчёт EAC об извлечении, выполненном 2. августа 2011, 12:27

Various / Rock-A-Billy - Teenage Boogie

Дисковод: Optiarc DVD RW AD-7173A   Adapter: 0  ID: 1

Режим чтения                 : Достоверность
Использование точного потока : Да
Отключение кэша аудио        : Да
Использование указателей C2  : Нет

Коррекция смещения при чтении                     : 48
Способность читать области Lead-in и Lead-out     : Нет
Заполнение пропущенных сэмплов тишиной            : Да
Удаление блоков с тишиной в начале и конце        : Нет
При вычислениях CRC использовались нулевые сэмплы : Да
Интерфейс                                         : Встроенный Win32-интерфейс для Win NT/2000

Выходной формат : Внутренние WAV-операции
Формат сэмплов  : 44.100 Гц; 16 бит; стерео

TOC извлечённого CD

     Трек |   Старт  | Длительность | Начальный сектор | Конечный сектор
    ---------------------------------------------------------------------
       1  |  0:00.00 |    2:10.15   |           0      |       9764
       2  |  2:10.15 |    2:05.12   |        9765      |      19151
       3  |  4:15.27 |    2:26.46   |       19152      |      30147
       4  |  6:41.73 |    1:35.71   |       30148      |      37343
       5  |  8:17.69 |    2:18.58   |       37344      |      47751
       6  | 10:36.52 |    2:13.03   |       47752      |      57729
       7  | 12:49.55 |    2:01.21   |       57730      |      66825
       8  | 14:51.01 |    2:08.71   |       66826      |      76496
       9  | 16:59.72 |    2:12.41   |       76497      |      86437
      10  | 19:12.38 |    2:05.31   |       86438      |      95843
      11  | 21:17.69 |    2:04.65   |       95844      |     105208
      12  | 23:22.59 |    2:39.74   |      105209      |     117207
      13  | 26:02.58 |    2:02.21   |      117208      |     126378
      14  | 28:05.04 |    2:23.68   |      126379      |     137171
      15  | 30:28.72 |    2:18.60   |      137172      |     147581
      16  | 32:47.57 |    2:12.67   |      147582      |     157548
      17  | 35:00.49 |    2:23.27   |      157549      |     168300
      18  | 37:24.01 |    2:18.29   |      168301      |     178679
      19  | 39:42.30 |    2:05.45   |      178680      |     188099
      20  | 41:48.00 |    2:05.07   |      188100      |     197481

Характеристики диапазона извлечения и сообщения об ошибках

Выбранный диапазон

     Имя файла D:\КОЛЛЕКЦИЯ 12\ROCK-A-BILLY\8\Various - Rock-A-Billy - Teenage Boogie.wav

     Пиковый уровень 100.0 %
     Качество диапазона 100.0 %
     CRC копии 2369F0A5
     Копирование... OK

Ошибок не произошло

AccurateRip: сводка

Трек  1  нет в базе данных
Трек  2  нет в базе данных
Трек  3  нет в базе данных
Трек  4  нет в базе данных
Трек  5  нет в базе данных
Трек  6  нет в базе данных
Трек  7  нет в базе данных
Трек  8  нет в базе данных
Трек  9  нет в базе данных
Трек 10  нет в базе данных
Трек 11  нет в базе данных
Трек 12  нет в базе данных
Трек 13  нет в базе данных
Трек 14  нет в базе данных
Трек 15  нет в базе данных
Трек 16  нет в базе данных
Трек 17  нет в базе данных
Трек 18  нет в базе данных
Трек 19  нет в базе данных
Трек 20  нет в базе данных

Ни одного трека нет в базе AccurateRip

Конец отчёта


Create a new paste based on this one


Comments: