[ create a new paste ] login | about

Link: http://codepad.org/sbz0c7p0    [ raw code | fork ]

Plain Text, pasted on Nov 22:
foobar2000 1.3.8 / Dynamic Range Meter 1.1.1
log date: 2015-10-21 14:46:48

--------------------------------------------------------------------------------
Analyzed: Mahavishnu Orchestra / Birds Of Fire (2015 AF Hybrid SACD)
--------------------------------------------------------------------------------

DR         Peak         RMS     Duration Track
--------------------------------------------------------------------------------
DR10      -0.88 dB   -13.73 dB      5:50 01-Birds Of Fire
DR11      -1.82 dB   -16.06 dB      4:48 02-Miles Beyond
DR10      -1.68 dB   -13.85 dB      2:54 03-Celestial Terrestrial Commuters
DR10      -4.26 dB   -19.42 dB      0:24 04-Sapphire Bullets Of Pure Love
DR11      -2.76 dB   -18.11 dB      3:22 05-Thousand Island Park
DR10      -1.30 dB   -15.87 dB      2:01 06-Hope
DR11      -0.92 dB   -16.82 dB      9:58 07-One Word
DR12      -1.31 dB   -18.93 dB      5:06 08-Sanctuary
DR12      -0.01 dB   -18.58 dB      3:57 09-Open Country Joy
DR11      -1.01 dB   -14.79 dB      2:14 10-Resolution
--------------------------------------------------------------------------------

Number of tracks:  10
Official DR value: DR11

Samplerate:        88200 Hz
Channels:          2
Bits per sample:   24
Bitrate:           2665 kbps
Codec:             FLAC
================================================================================




Create a new paste based on this one


Comments: