[ create a new paste ] login | about

Link: http://codepad.org/seKvaKdQ    [ raw code | fork ]

Plain Text, pasted on Feb 28:
1
2
3
4
5
6
7
8
9
10
11
12
13
14
15
16
17
18
[CUETools log; Date: 2/27/2017 8:34:16 PM; Version: 2.1.5]
[CTDB TOCID: Dg8Qg.sVhRdHqa5HlzU_xDzL3s8-] found.
Track | CTDB Status
  1   | (7/7) Accurately ripped
  2   | (7/7) Accurately ripped
  3   | (7/7) Accurately ripped
[AccurateRip ID: 000116a5-0003a528-1701d103] found.
Track   [  CRC   |   V2   ] Status
 01     [b9c08abf|c5473156] (10+11/21) Accurately ripped
 02     [b4e15a45|847ef547] (10+11/21) Accurately ripped
 03     [e8e9954d|8e9b276e] (10+11/21) Accurately ripped

Track Peak [ CRC32  ] [W/O NULL] [  LOG   ]
 --   98.8 [6FCE71F1] [D3F437DF]           
 01   95.5 [42840495] [B3FD9E63]   CRC32   
 02   98.8 [37592132] [1C26DBF5]   CRC32   
 03   91.8 [9D8010C0] [2F9D8E80]   CRC32   



Create a new paste based on this one


Comments: