[ create a new paste ] login | about

Link: http://codepad.org/sfQUSa6m    [ raw code | fork ]

Plain Text, pasted on Jul 5:
Exact Audio Copy V1.0 beta 4 from 7. December 2014

EAC extraction logfile from 5. February 2016, 10:31

Fleetwood Mac / Live Becoming A Landslide. Passiac NJ Broadcast 1975 (2015, ZCCD013)

Used drive  : ATAPI   iHAS124   B   Adapter: 1  ID: 0

Read mode               : Secure
Utilize accurate stream : Yes
Defeat audio cache      : Yes
Make use of C2 pointers : No

Read offset correction                      : 6
Overread into Lead-In and Lead-Out          : No
Fill up missing offset samples with silence : Yes
Delete leading and trailing silent blocks   : No
Null samples used in CRC calculations       : Yes
Used interface                              : Installed external ASPI interface

Used output format              : User Defined Encoder
Selected bitrate                : 128 kBit/s
Quality                         : High
Add ID3 tag                     : Yes
Command line compressor         : C:\Program Files (x86)\Exact Audio Copy\Flac\flac.exe
Additional command line options : -V -8 -T "Date=%year%" -T "Genre=%genre%" %source%


TOC of the extracted CD

     Track |   Start  |  Length  | Start sector | End sector 
    ---------------------------------------------------------
        1  |  0:00.00 |  0:43.03 |         0    |     3227   
        2  |  0:43.03 |  6:47.07 |      3228    |    33759   
        3  |  7:30.10 |  4:35.28 |     33760    |    54412   
        4  | 12:05.38 |  7:53.35 |     54413    |    89922   
        5  | 19:58.73 |  3:34.65 |     89923    |   106037   
        6  | 23:33.63 |  5:24.72 |    106038    |   130409   
        7  | 28:58.60 |  9:04.28 |    130410    |   171237   
        8  | 38:03.13 |  4:23.15 |    171238    |   190977   
        9  | 42:26.28 |  9:44.47 |    190978    |   234824   


Range status and errors

Selected range

     Filename G:\CD\Fleetwood Mac - Live Becoming A Landslide.wav

     Peak level 98.6 %
     Extraction speed 5.6 X
     Range quality 100.0 %
     Test CRC 27269D6F
     Copy CRC 27269D6F
     Copy OK

No errors occurred

 
AccurateRip summary
 
Track  1  not present in database
Track  2  not present in database
Track  3  not present in database
Track  4  not present in database
Track  5  not present in database
Track  6  not present in database
Track  7  not present in database
Track  8  not present in database
Track  9  not present in database
 
None of the tracks are present in the AccurateRip database

End of status report

---- CUETools DB Plugin V2.1.4

[CTDB TOCID: _iECdG1x6qsSDDRaTO.CyG4jgew-] disk not present in database
Submit result: _iECdG1x6qsSDDRaTO.CyG4jgew- has been uploaded


==== Log checksum 99E226102C7B5145E970932DDCC21191EFBD6922AB1428C9242B59E7593D5A7E ====



Create a new paste based on this one


Comments: