[ create a new paste ] login | about

Link: http://codepad.org/sfdY7fyX    [ raw code | fork ]

Plain Text, pasted on Feb 24:
[CUETools log; Date: 2/24/2018 9:21:15 AM; Version: 2.1.5]
[CTDB TOCID: iUYddD1byu.Q6YMtTUqMuhA0LFk-] found.
Track | CTDB Status
  1   | (137/137) Accurately ripped
  2   | (137/137) Accurately ripped
  3   | (137/137) Accurately ripped
  4   | (137/137) Accurately ripped
  5   | (137/137) Accurately ripped
  6   | (137/137) Accurately ripped
  7   | (137/137) Accurately ripped
[AccurateRip ID: 000b798c-00425284-6108a107] found.
Track   [  CRC   |   V2   ] Status
 01     [075ba322|34b29df5] (07+69/76) Accurately ripped
 02     [05c03584|3481722a] (07+69/76) Accurately ripped
 03     [37b6b831|aba79455] (07+69/76) Accurately ripped
 04     [176783bf|be64be29] (07+69/76) Accurately ripped
 05     [afc6b109|948bafc2] (07+69/76) Accurately ripped
 06     [d3986e3f|f5b2e400] (07+69/76) Accurately ripped
 07     [17eed801|cb241b8a] (06+68/74) Accurately ripped

Track Peak [ CRC32  ] [W/O NULL] [  LOG   ]
 --   99.7 [7C177245] [40BE0AB8]           
 01   99.7 [7645B993] [EF8ADCB2]   CRC32   
 02   73.5 [8888B59B] [05B0F38D]   CRC32   
 03   88.8 [E62924DA] [BE4F3AE2]   CRC32   
 04   79.1 [AFF258B9] [5B73A58A]   CRC32   
 05   82.9 [5C202E9F] [1FA516A4]   CRC32   
 06   78.8 [2265DA84] [A81E6BDD]   CRC32   
 07   81.6 [533F4F7D] [F67E03FB]   CRC32   



Create a new paste based on this one


Comments: