[ create a new paste ] login | about

Link: http://codepad.org/skRlpnNO    [ raw code | fork ]

Plain Text, pasted on May 8:
foobar2000 1.4.1 / Dynamic Range Meter 1.1.1
log date: 2019-05-07 23:15:55

--------------------------------------------------------------------------------
Analyzed: MILES DAVIS / ON THE CORNER
--------------------------------------------------------------------------------

DR         Peak         RMS     Duration Track
--------------------------------------------------------------------------------
DR10      -3.68 dB   -15.77 dB      3:00 01-ON THE CORNER
DR9       -4.10 dB   -14.56 dB      1:31 02-NEW YORK GIRL
DR11      -3.59 dB   -16.92 dB      6:42 03-THINKIN' ONE THING AND DOIN' ANOTHER
DR10      -2.92 dB   -16.22 dB      8:47 04-VOTE FOR MILES
DR12      -2.97 dB   -17.78 dB      5:20 05-BLACK SATIN
DR12      -0.01 dB   -15.54 dB      6:10 06-ONE AND ONE
DR13      -0.20 dB   -14.61 dB     16:06 07-HELEN BUTTE
DR14      -0.74 dB   -17.30 dB      7:12 08-MR. FREEDOM X
--------------------------------------------------------------------------------

Number of tracks:  8
Official DR value: DR11

Samplerate:        88200 Hz
Channels:          2
Bits per sample:   24
Bitrate:           2764 kbps
Codec:             FLAC
================================================================================




Create a new paste based on this one


Comments: