[ create a new paste ] login | about

Link: http://codepad.org/smKGeNKX    [ raw code | fork ]

Plain Text, pasted on Aug 5:
[CUETools log; Date: 8/5/2017 12:21:50 PM; Version: 2.1.5]
[CTDB TOCID: IJ1bgcOMBJ.dKlChAY3su36T3fQ-] disk not present in database.
[AccurateRip ID: 002048a2-0116d80e-b212800b] found.
Track   [  CRC   |   V2   ] Status
 01     [a046c6fc|bf77a42d] (0+0/1) No match
 02     [e9da818e|fa970455] (0+0/1) No match
 03     [2e9377eb|d493d22d] (0+0/1) No match
 04     [d1002a93|cd73509d] (0+0/1) No match
 05     [fb6f30b3|396f98f7] (0+0/1) No match
 06     [8a841842|68d52b70] (0+0/1) No match
 07     [a4e4e545|0996c979] (0+0/1) No match
 08     [b47ad678|7bc1d332] (0+0/1) No match
 09     [5df5a264|055ca1ba] (0+0/1) No match
 10     [0101f5d7|9e719e09] (0+0/1) No match
 11     [c6060745|0b8560c8] (0+0/1) No match
Offsetted by 6:
 01     [85159908] (1/1) Accurately ripped
 02     [5fc8f5b8] (1/1) Accurately ripped
 03     [66fb9d71] (1/1) Accurately ripped
 04     [80f7973d] (1/1) Accurately ripped
 05     [dff68efb] (1/1) Accurately ripped
 06     [174ee7be] (1/1) Accurately ripped
 07     [5b41cd73] (1/1) Accurately ripped
 08     [96cc5378] (1/1) Accurately ripped
 09     [a7aed0ee] (1/1) Accurately ripped
 10     [3e066a5d] (1/1) Accurately ripped
 11     [0035fcdb] (1/1) Accurately ripped

Track Peak [ CRC32  ] [W/O NULL] 
 --   97.0 [D65AC0FD] [BF82305A]           
 01   96.3 [AFB7AC52] [CAC1D340]           
 02   96.4 [7009AB43] [D76064E2]           
 03   96.6 [46C876F5] [10D6AED6]           
 04   96.4 [ADD9B350] [5C10C0E3]           
 05   87.1 [5DA213FC] [49873BCA]           
 06   96.6 [33B819F8] [3F069656]           
 07   96.7 [0B1F57F0] [1AE60619]           
 08   96.6 [CB26078F] [77859649]           
 09   96.6 [4D3520B8] [D3B98EEB]           
 10   96.7 [6982BB8D] [81DAE759]           
 11   97.0 [7707F489] [15E13367]           



Create a new paste based on this one


Comments: