[ create a new paste ] login | about

Link: http://codepad.org/snZqTWdd    [ raw code | fork ]

Plain Text, pasted on Nov 27:
foobar2000 1.1.18 / Dynamic Range Meter 1.1.1
log date: 2012-12-21 13:15:59

--------------------------------------------------------------------------------
Analyzed: Caetano Veloso / A Foreign Sound (Hybrid SACD)
--------------------------------------------------------------------------------

DR         Peak         RMS     Duration Track
--------------------------------------------------------------------------------
DR10      -0.13 dB   -11.90 dB      3:33 01-The Carioca
DR9       -0.23 dB   -11.41 dB      5:31 02-So In Love
DR10      -1.24 dB   -13.34 dB      1:20 03-I Only Have Eyes For You
DR9       -0.02 dB   -11.55 dB      6:08 04-It's Alright Ma
DR9       -0.23 dB   -11.61 dB      3:31 05-Body and Soul
DR9       -0.23 dB   -12.04 dB      1:59 06-Nature Boy
DR9       -0.01 dB   -10.76 dB      4:10 07-The Man I Love
DR10      -1.24 dB   -12.81 dB      1:48 08-There Will Never Be Another You
DR9       -0.23 dB   -12.22 dB      2:39 09-Smoke Gets In Your Eyes
DR8       -0.10 dB   -10.09 dB      3:28 10-Diana
DR9       -0.08 dB   -11.55 dB      5:19 11-Sophisticated Lady
DR9       -0.23 dB   -10.99 dB      4:17 12-Come As You Are
DR10      -0.22 dB   -13.21 dB      4:33 13-Feelings
DR11      -3.02 dB   -16.76 dB      2:33 14-Summertime
DR8       -0.10 dB   -10.38 dB      1:30 15-Detached
DR10      -0.23 dB   -12.09 dB      2:45 16-Jamaica Farewell
DR12      -1.73 dB   -17.16 dB      2:39 17-Love For Sale
DR10      -0.23 dB   -11.51 dB      3:10 18-Cry Me A River
DR9       -0.23 dB   -10.94 dB      3:04 19-If It's Magic
DR12      -1.24 dB   -15.75 dB      1:38 20-Something Good
DR10      -1.69 dB   -14.25 dB      3:26 21-Stardust
DR10      -0.18 dB   -12.71 dB      2:48 22-Blue Skies
DR12      -0.23 dB   -14.06 dB      3:59 23-Manhattan
DR10      -0.41 dB   -13.47 dB      3:24 24-Love Me Tender
--------------------------------------------------------------------------------

Number of tracks:  24
Official DR value: DR10

Samplerate:        88200 Hz
Channels:          2
Bits per sample:   24
Bitrate:           2608 kbps
Codec:             FLAC
================================================================================




Create a new paste based on this one


Comments: