[ create a new paste ] login | about

Link: http://codepad.org/spaWTJdL    [ raw code | fork ]

Plain Text, pasted on Sep 30:
X Lossless Decoder version 20111015 (136.4)

XLD extraction logfile from 2011-11-08 23:23:27 +0200

The Allman Brothers Band / Gold CD 2

Used drive : MATSHITA DVD-R   UJ-898 (revision HC09)

Ripper mode             : XLD Secure Ripper
Disable audio cache     : OK for the drive with a cache less than 1375KiB
Make use of C2 pointers : NO
Read offset correction  : 102
Max retry count         : 100
Gap status              : Analyzed, Appended

TOC of the extracted CD
     Track |   Start  |  Length  | Start sector | End sector 
    ---------------------------------------------------------
        1  | 00:00:00 | 05:00:00 |         0    |    22499   
        2  | 05:00:00 | 03:40:45 |     22500    |    39044   
        3  | 08:40:45 | 03:54:27 |     39045    |    56621   
        4  | 12:34:72 | 03:26:70 |     56622    |    72141   
        5  | 16:01:67 | 05:11:53 |     72142    |    95519   
        6  | 21:13:45 | 02:10:60 |     95520    |   105329   
        7  | 23:24:30 | 04:20:27 |    105330    |   124856   
        8  | 27:44:57 | 04:50:43 |    124857    |   146649   
        9  | 32:35:25 | 05:10:35 |    146650    |   169934   
       10  | 37:45:60 | 07:30:62 |    169935    |   203746   
       11  | 45:16:47 | 05:03:35 |    203747    |   226506   
       12  | 50:20:07 | 05:54:30 |    226507    |   253086   
       13  | 56:14:37 | 04:47:15 |    253087    |   274626   
       14  | 61:01:52 | 03:45:48 |    274627    |   291549   
       15  | 64:47:25 | 03:36:60 |    291550    |   307809   
       16  | 68:24:10 | 07:31:70 |    307810    |   341704   

List of alternate offset correction values
        #  | Absolute | Relative | Confidence 
    ------------------------------------------
        1  |    766   |    664   |     43     
        2  |    423   |    321   |     26     
        3  |    424   |    322   |     26     
        4  |    393   |    291   |      2     
        5  |    394   |    292   |      2     

AccurateRip Summary
    Track 01 : OK (AR2, confidence 6, with different offset)
    Track 02 : OK (AR2, confidence 6, with different offset)
    Track 03 : OK (AR2, confidence 2, with different offset)
    Track 04 : OK (AR2, confidence 6, with different offset)
    Track 05 : OK (AR2, confidence 2, with different offset)
    Track 06 : OK (AR2, confidence 6, with different offset)
    Track 07 : OK (AR2, confidence 6, with different offset)
    Track 08 : OK (AR2, confidence 6, with different offset)
    Track 09 : OK (AR2, confidence 6, with different offset)
    Track 10 : OK (AR2, confidence 2, with different offset)
    Track 11 : OK (AR2, confidence 6, with different offset)
    Track 12 : OK (AR2, confidence 6, with different offset)
    Track 13 : OK (AR2, confidence 6, with different offset)
    Track 14 : OK (AR2, confidence 6, with different offset)
    Track 15 : OK (AR2, confidence 6, with different offset)
    Track 16 : OK (AR2, confidence 6, with different offset)
        ->All tracks accurately ripped.

All Tracks
    Filename : /Users/macuser/Desktop/    The Allman Brothers Band-GOLD(2005)/01 The Allman Brothers Band - Gold CD 2.flac
    Album gain             : -4.85 dB
    Peak                   : 0.949402
    CRC32 hash (test run)  : A345E7BA
    CRC32 hash             : A345E7BA
    CRC32 hash (skip zero) : 5F6E842D
    Statistics
        Read error                           : 0
        Jitter error (maybe fixed)           : 0
        Retry sector count                   : 0
        Damaged sector count                 : 0

Track 01
    Pre-gap length : 00:02:00

    Track gain             : -5.40 dB
    Peak                   : 0.947601
    CRC32 hash (test run)  : 16A8E2B4
    CRC32 hash             : 16A8E2B4
    CRC32 hash (skip zero) : B94EB857
    AccurateRip signature  : 8E50AF18
        ->Accurately ripped! (AR2, confidence 6)
          (matched with the different offset correction value;
           calculated using an additional offset of 322;
           the signature after correction is: 7D8DEB7D)
    Statistics
        Read error                           : 0
        Jitter error (maybe fixed)           : 0
        Retry sector count                   : 0
        Damaged sector count                 : 0

Track 02
    Pre-gap length : 00:02:45

    Track gain             : -4.20 dB
    Peak                   : 0.949402
    CRC32 hash (test run)  : 533A4CC3
    CRC32 hash             : 533A4CC3
    CRC32 hash (skip zero) : E64D56A0
    AccurateRip signature  : DD02CC6D
        ->Accurately ripped! (AR2, confidence 6)
          (matched with the different offset correction value;
           calculated using an additional offset of 322;
           the signature after correction is: 72021833)
    Statistics
        Read error                           : 0
        Jitter error (maybe fixed)           : 0
        Retry sector count                   : 0
        Damaged sector count                 : 0

Track 03
    Pre-gap length : 00:02:43

    Track gain             : -3.17 dB
    Peak                   : 0.861511
    CRC32 hash (test run)  : 82905AD8
    CRC32 hash             : 82905AD8
    CRC32 hash (skip zero) : F88E7AF5
    AccurateRip signature  : 211D9318
        ->Accurately ripped! (AR2, confidence 2)
          (matched with the different offset correction value;
           calculated using an additional offset of 664;
           the signature after correction is: 6E3D18A2)
    Statistics
        Read error                           : 0
        Jitter error (maybe fixed)           : 0
        Retry sector count                   : 0
        Damaged sector count                 : 0

Track 04
    Pre-gap length : 00:02:45

    Track gain             : -4.92 dB
    Peak                   : 0.904205
    CRC32 hash (test run)  : A26AF42E
    CRC32 hash             : A26AF42E
    CRC32 hash (skip zero) : B016AD44
    AccurateRip signature  : 234729DF
        ->Accurately ripped! (AR2, confidence 6)
          (matched with the different offset correction value;
           calculated using an additional offset of 321;
           the signature after correction is: D9751A3F)
    Statistics
        Read error                           : 0
        Jitter error (maybe fixed)           : 0
        Retry sector count                   : 0
        Damaged sector count                 : 0

Track 05
    Pre-gap length : 00:02:40

    Track gain             : -4.80 dB
    Peak                   : 0.922363
    CRC32 hash (test run)  : 0479E099
    CRC32 hash             : 0479E099
    CRC32 hash (skip zero) : 7E7E95B6
    AccurateRip signature  : 288A4EBD
        ->Accurately ripped! (AR2, confidence 2)
          (matched with the different offset correction value;
           calculated using an additional offset of 664;
           the signature after correction is: B6590CCB)
    Statistics
        Read error                           : 0
        Jitter error (maybe fixed)           : 0
        Retry sector count                   : 0
        Damaged sector count                 : 0

Track 06
    Pre-gap length : 00:02:48

    Track gain             : -2.14 dB
    Peak                   : 0.677185
    CRC32 hash (test run)  : 9040287D
    CRC32 hash             : 9040287D
    CRC32 hash (skip zero) : 81C7008A
    AccurateRip signature  : FFD9794D
        ->Accurately ripped! (AR2, confidence 6)
          (matched with the different offset correction value;
           calculated using an additional offset of 322;
           the signature after correction is: 295DD785)
    Statistics
        Read error                           : 0
        Jitter error (maybe fixed)           : 0
        Retry sector count                   : 0
        Damaged sector count                 : 0

Track 07
    Pre-gap length : 00:02:43

    Track gain             : -4.75 dB
    Peak                   : 0.849976
    CRC32 hash (test run)  : FB97E1DA
    CRC32 hash             : FB97E1DA
    CRC32 hash (skip zero) : E9193F3B
    AccurateRip signature  : 5BB66D79
        ->Accurately ripped! (AR2, confidence 6)
          (matched with the different offset correction value;
           calculated using an additional offset of 322;
           the signature after correction is: 8FB0F2D9)
    Statistics
        Read error                           : 0
        Jitter error (maybe fixed)           : 0
        Retry sector count                   : 0
        Damaged sector count                 : 0

Track 08
    Pre-gap length : 00:01:40

    Track gain             : -3.75 dB
    Peak                   : 0.845306
    CRC32 hash (test run)  : 36ABD70C
    CRC32 hash             : 36ABD70C
    CRC32 hash (skip zero) : 73827A97
    AccurateRip signature  : EE26AF21
        ->Accurately ripped! (AR2, confidence 6)
          (matched with the different offset correction value;
           calculated using an additional offset of 322;
           the signature after correction is: B63E49E4)
    Statistics
        Read error                           : 0
        Jitter error (maybe fixed)           : 0
        Retry sector count                   : 0
        Damaged sector count                 : 0

Track 09
    Pre-gap length : 00:02:40

    Track gain             : -3.15 dB
    Peak                   : 0.764099
    CRC32 hash (test run)  : 57050C86
    CRC32 hash             : 57050C86
    CRC32 hash (skip zero) : D5BC1282
    AccurateRip signature  : D28C52A2
        ->Accurately ripped! (AR2, confidence 6)
          (matched with the different offset correction value;
           calculated using an additional offset of 322;
           the signature after correction is: E93D220C)
    Statistics
        Read error                           : 0
        Jitter error (maybe fixed)           : 0
        Retry sector count                   : 0
        Damaged sector count                 : 0

Track 10

    Track gain             : -5.16 dB
    Peak                   : 0.857666
    CRC32 hash (test run)  : 8B5D7888
    CRC32 hash             : 8B5D7888
    CRC32 hash (skip zero) : 86E33194
    AccurateRip signature  : F364F514
        ->Accurately ripped! (AR2, confidence 2)
          (matched with the different offset correction value;
           calculated using an additional offset of 664;
           the signature after correction is: 291602F7)
    Statistics
        Read error                           : 0
        Jitter error (maybe fixed)           : 0
        Retry sector count                   : 0
        Damaged sector count                 : 0

Track 11
    Pre-gap length : 00:01:60

    Track gain             : -5.91 dB
    Peak                   : 0.896515
    CRC32 hash (test run)  : 46337C7B
    CRC32 hash             : 46337C7B
    CRC32 hash (skip zero) : 77545D63
    AccurateRip signature  : A8B8A822
        ->Accurately ripped! (AR2, confidence 6)
          (matched with the different offset correction value;
           calculated using an additional offset of 321;
           the signature after correction is: E70AC4C3)
    Statistics
        Read error                           : 0
        Jitter error (maybe fixed)           : 0
        Retry sector count                   : 0
        Damaged sector count                 : 0

Track 12
    Pre-gap length : 00:03:67

    Track gain             : -4.84 dB
    Peak                   : 0.764160
    CRC32 hash (test run)  : 06C67EA9
    CRC32 hash             : 06C67EA9
    CRC32 hash (skip zero) : 569288E2
    AccurateRip signature  : A6F23B8D
        ->Accurately ripped! (AR2, confidence 6)
          (matched with the different offset correction value;
           calculated using an additional offset of 321;
           the signature after correction is: 92662C4C)
    Statistics
        Read error                           : 0
        Jitter error (maybe fixed)           : 0
        Retry sector count                   : 0
        Damaged sector count                 : 0

Track 13
    Pre-gap length : 00:03:55

    Track gain             : -5.12 dB
    Peak                   : 0.805908
    CRC32 hash (test run)  : 1876078E
    CRC32 hash             : 1876078E
    CRC32 hash (skip zero) : 00E7A803
    AccurateRip signature  : 3564F783
        ->Accurately ripped! (AR2, confidence 6)
          (matched with the different offset correction value;
           calculated using an additional offset of 321;
           the signature after correction is: FC758FEC)
    Statistics
        Read error                           : 0
        Jitter error (maybe fixed)           : 0
        Retry sector count                   : 0
        Damaged sector count                 : 0

Track 14
    Pre-gap length : 00:02:42

    Track gain             : -5.44 dB
    Peak                   : 0.800232
    CRC32 hash (test run)  : 21FEBCFE
    CRC32 hash             : 21FEBCFE
    CRC32 hash (skip zero) : 0DEAE0BE
    AccurateRip signature  : A9641979
        ->Accurately ripped! (AR2, confidence 6)
          (matched with the different offset correction value;
           calculated using an additional offset of 321;
           the signature after correction is: 460BAF07)
    Statistics
        Read error                           : 0
        Jitter error (maybe fixed)           : 0
        Retry sector count                   : 0
        Damaged sector count                 : 0

Track 15
    Pre-gap length : 00:02:35

    Track gain             : -4.37 dB
    Peak                   : 0.764069
    CRC32 hash (test run)  : EF2E94EB
    CRC32 hash             : EF2E94EB
    CRC32 hash (skip zero) : 464E06F8
    AccurateRip signature  : B885EC8B
        ->Accurately ripped! (AR2, confidence 6)
          (matched with the different offset correction value;
           calculated using an additional offset of 321;
           the signature after correction is: C6445AF9)
    Statistics
        Read error                           : 0
        Jitter error (maybe fixed)           : 0
        Retry sector count                   : 0
        Damaged sector count                 : 0

Track 16
    Pre-gap length : 00:02:43

    Track gain             : -4.48 dB
    Peak                   : 0.857635
    CRC32 hash (test run)  : B96A36DE
    CRC32 hash             : B96A36DE
    CRC32 hash (skip zero) : 263E0AED
    AccurateRip signature  : FC4A4B14
        ->Accurately ripped! (AR2, confidence 6)
          (matched with the different offset correction value;
           calculated using an additional offset of 321;
           the signature after correction is: D8D41C59)
    Statistics
        Read error                           : 0
        Jitter error (maybe fixed)           : 0
        Retry sector count                   : 0
        Damaged sector count                 : 0

No errors occurred

End of status report



Create a new paste based on this one


Comments: