[ create a new paste ] login | about

Link: http://codepad.org/sptgLhH1    [ raw code | fork ]

Plain Text, pasted on Jun 20:
foobar2000 1.3.17 / Dynamic Range Meter 1.1.1
log date: 2018-06-20 11:43:24

--------------------------------------------------------------------------------
Analyzed: The Moody Blues / Seventh Sojourn  (MFSL 1-151)
--------------------------------------------------------------------------------

DR         Peak         RMS     Duration Track
--------------------------------------------------------------------------------
DR12      -0.31 dB   -14.75 dB      4:41 01-Lost in a Lost World
DR12      -1.21 dB   -15.99 dB      5:10 02-New Horizons
DR12      -1.23 dB   -16.63 dB      3:58 03-For My Lady
DR11      -1.72 dB   -17.23 dB      6:08 04-Isn't Life Strange
DR12      -1.94 dB   -15.70 dB      4:20 05-You and Me
DR12      -0.80 dB   -14.83 dB      4:51 06-The Land of Make-Believe
DR12      -2.15 dB   -16.86 dB      6:05 07-When You're a Free Man
DR12      -0.22 dB   -14.62 dB      4:19 08-I'm Just a Singer (In a Rock and Roll Band)
--------------------------------------------------------------------------------

Number of tracks:  8
Official DR value: DR12

Samplerate:        44100 Hz
Channels:          2
Bits per sample:   16
Bitrate:           908 kbps
Codec:             FLAC
================================================================================




Create a new paste based on this one


Comments: