[ create a new paste ] login | about

Link: http://codepad.org/sqBRdn8P    [ raw code | fork ]

Plain Text, pasted on Mar 2:
Exact Audio Copy V1.3 from 2. September 2016

EAC extraction logfile from 28. February 2020, 16:49

James Taylor / American Standard

Used drive  : ASUS    BW-12D1S-U   Adapter: 1  ID: 0

Read mode               : Secure
Utilize accurate stream : Yes
Defeat audio cache      : Yes
Make use of C2 pointers : No

Read offset correction                      : 667
Overread into Lead-In and Lead-Out          : No
Fill up missing offset samples with silence : Yes
Delete leading and trailing silent blocks   : No
Null samples used in CRC calculations       : Yes
Used interface                              : Native Win32 interface for Win NT & 2000
Gap handling                                : Appended to previous track

Used output format              : User Defined Encoder
Selected bitrate                : 1024 kBit/s
Quality                         : High
Add ID3 tag                     : No
Command line compressor         : C:\Program Files (x86)\Exact Audio Copy\FLAC\FLAC.EXE
Additional command line options : -V -8 -T "Genre=%genre%" -T "Artist=%artist%" -T "Title=%title%" -T "Album=%albumtitle%" -T "Date=%year%" -T "Tracknumber=%tracknr%" -T "Comment=%comment%" %source%


TOC of the extracted CD

     Track |   Start  |  Length  | Start sector | End sector 
    ---------------------------------------------------------
        1  |  0:00.00 |  2:43.12 |         0    |    12236   
        2  |  2:43.12 |  3:13.16 |     12237    |    26727   
        3  |  5:56.28 |  2:58.60 |     26728    |    40137   
        4  |  8:55.13 |  2:50.32 |     40138    |    52919   
        5  | 11:45.45 |  3:42.43 |     52920    |    69612   
        6  | 15:28.13 |  4:11.01 |     69613    |    88438   
        7  | 19:39.14 |  3:52.26 |     88439    |   105864   
        8  | 23:31.40 |  2:26.26 |    105865    |   116840   
        9  | 25:57.66 |  3:21.57 |    116841    |   131972   
       10  | 29:19.48 |  2:52.18 |    131973    |   144890   
       11  | 32:11.66 |  3:27.04 |    144891    |   160419   
       12  | 35:38.70 |  2:53.40 |    160420    |   173434   
       13  | 38:32.35 |  3:11.67 |    173435    |   187826   
       14  | 41:44.27 |  3:20.03 |    187827    |   202829   


Track  1

     Filename E:\Torrents of Autumn\Taylor, James [2020] American Standard\01. My Blue Heaven.wav

     Pre-gap length  0:00:02.00

     Peak level 98.5 %
     Extraction speed 4.6 X
     Track quality 100.0 %
     Test CRC 1E60206F
     Copy CRC 1E60206F
     Copy OK

Track  2

     Filename E:\Torrents of Autumn\Taylor, James [2020] American Standard\02. Moon River.wav

     Peak level 96.6 %
     Extraction speed 4.4 X
     Track quality 99.9 %
     Test CRC 941BE9B6
     Copy CRC 941BE9B6
     Copy OK

Track  3

     Filename E:\Torrents of Autumn\Taylor, James [2020] American Standard\03. Teach Me Tonight.wav

     Peak level 97.7 %
     Extraction speed 5.4 X
     Track quality 100.0 %
     Test CRC D25F9788
     Copy CRC D25F9788
     Copy OK

Track  4

     Filename E:\Torrents of Autumn\Taylor, James [2020] American Standard\04. As Easy As Rolling Off a Log.wav

     Peak level 96.9 %
     Extraction speed 5.6 X
     Track quality 100.0 %
     Test CRC 60E63402
     Copy CRC 60E63402
     Copy OK

Track  5

     Filename E:\Torrents of Autumn\Taylor, James [2020] American Standard\05. Almost Like Being in Love.wav

     Peak level 99.2 %
     Extraction speed 6.1 X
     Track quality 100.0 %
     Test CRC BBF06DB3
     Copy CRC BBF06DB3
     Copy OK

Track  6

     Filename E:\Torrents of Autumn\Taylor, James [2020] American Standard\06. Sit Down, You're Rockin' the Boat.wav

     Peak level 100.0 %
     Extraction speed 5.9 X
     Track quality 99.9 %
     Test CRC 52D6FE2E
     Copy CRC 52D6FE2E
     Copy OK

Track  7

     Filename E:\Torrents of Autumn\Taylor, James [2020] American Standard\07. The Nearness of You.wav

     Peak level 98.4 %
     Extraction speed 6.9 X
     Track quality 100.0 %
     Test CRC 8F0444A2
     Copy CRC 8F0444A2
     Copy OK

Track  8

     Filename E:\Torrents of Autumn\Taylor, James [2020] American Standard\08. You've Got to Be Carefully Taught.wav

     Peak level 97.3 %
     Extraction speed 6.6 X
     Track quality 100.0 %
     Test CRC 3187B4FD
     Copy CRC 3187B4FD
     Copy OK

Track  9

     Filename E:\Torrents of Autumn\Taylor, James [2020] American Standard\09. God Bless the Child.wav

     Peak level 98.7 %
     Extraction speed 7.1 X
     Track quality 100.0 %
     Test CRC 17BCAC0D
     Copy CRC 17BCAC0D
     Copy OK

Track 10

     Filename E:\Torrents of Autumn\Taylor, James [2020] American Standard\10. Pennies from Heaven.wav

     Peak level 97.6 %
     Extraction speed 7.1 X
     Track quality 100.0 %
     Test CRC C0433E52
     Copy CRC C0433E52
     Copy OK

Track 11

     Filename E:\Torrents of Autumn\Taylor, James [2020] American Standard\11. My Heart Stood Still.wav

     Peak level 97.1 %
     Extraction speed 7.6 X
     Track quality 100.0 %
     Test CRC 80482193
     Copy CRC 80482193
     Copy OK

Track 12

     Filename E:\Torrents of Autumn\Taylor, James [2020] American Standard\12. Ol' Man River.wav

     Peak level 98.2 %
     Extraction speed 7.4 X
     Track quality 100.0 %
     Test CRC 45E2A16C
     Copy CRC 45E2A16C
     Copy OK

Track 13

     Filename E:\Torrents of Autumn\Taylor, James [2020] American Standard\13. It's Only a Paper Moon.wav

     Peak level 96.9 %
     Extraction speed 6.7 X
     Track quality 99.9 %
     Test CRC 095E0B1A
     Copy CRC 095E0B1A
     Copy OK

Track 14

     Filename E:\Torrents of Autumn\Taylor, James [2020] American Standard\14. The Surrey with the Fringe on Top.wav

     Peak level 96.6 %
     Extraction speed 8.1 X
     Track quality 100.0 %
     Test CRC 52F10CC7
     Copy CRC 52F10CC7
     Copy OK

No errors occurred

End of status report

---- CUETools DB Plugin V2.1.6

[CTDB TOCID: 9F7_wseUzhYSyqZgf1XlHyVQI2o-] found
Submit result: 9F7_wseUzhYSyqZgf1XlHyVQI2o- has been confirmed
Track | CTDB Status
  1   | (5/5) Accurately ripped
  2   | (5/5) Accurately ripped
  3   | (5/5) Accurately ripped
  4   | (5/5) Accurately ripped
  5   | (5/5) Accurately ripped
  6   | (5/5) Accurately ripped
  7   | (5/5) Accurately ripped
  8   | (5/5) Accurately ripped
  9   | (5/5) Accurately ripped
 10   | (5/5) Accurately ripped
 11   | (5/5) Accurately ripped
 12   | (5/5) Accurately ripped
 13   | (5/5) Accurately ripped
 14   | (5/5) Accurately ripped


==== Log checksum D77C37AE8E91C4CE4DCEC1192196B9174AAF8B4ACB9204DAF68DB145061B9002 ====



Create a new paste based on this one


Comments: