[ create a new paste ] login | about

Link: http://codepad.org/sqRscWFC    [ raw code | fork ]

Plain Text, pasted on Mar 1:
foobar2000 1.4.1 / Dynamic Range Meter 1.1.1
log date: 2019-03-01 08:43:52

--------------------------------------------------------------------------------
Analyzed: Iron Butterfly / In a Gadda Da Vida
--------------------------------------------------------------------------------

DR         Peak         RMS     Duration Track
--------------------------------------------------------------------------------
DR11      -1.55 dB   -13.66 dB      3:45 1/6-Most Anything You Want
DR11      -0.98 dB   -13.80 dB      3:09 2/6-Flowers And Beads
DR10      -0.91 dB   -13.74 dB      4:55 3/6-My Mirage
DR10      -2.07 dB   -14.92 dB      2:53 4/6-Termination
DR11      -1.05 dB   -14.50 dB      4:33 5/6-Are You Happy
DR12      -0.24 dB   -15.47 dB     17:11 6/6-In-A-Gadda-Da-Vida
--------------------------------------------------------------------------------

Number of tracks:  6
Official DR value: DR11

Samplerate:        96000 Hz
Channels:          2
Bits per sample:   24
Bitrate:           3093 kbps
Codec:             FLAC
================================================================================




Create a new paste based on this one


Comments: