[ create a new paste ] login | about

Link: http://codepad.org/srLIh1u2    [ raw code | fork ]

Plain Text, pasted on Apr 20:
foobar2000 1.3.17 / Dynamic Range Meter 1.1.1
log date: 2018-04-19 21:34:34

--------------------------------------------------------------------------------
Analyzed: Isao Tomita / PLANETS Ultimate Edition
--------------------------------------------------------------------------------

DR         Peak         RMS     Duration Track
--------------------------------------------------------------------------------
DR19      -0.22 dB   -20.11 dB     11:10 01-Mars
DR8       -0.79 dB   -20.50 dB      9:22 02-Venus
DR8       -0.27 dB   -18.55 dB      4:44 03-Mercury
DR9       -0.25 dB   -21.55 dB      7:33 04-Jupiter
DR9       -0.36 dB   -26.81 dB      3:24 05-Itokawa and Hayabusa
DR9       -0.07 dB   -19.91 dB      7:59 06-Saturn
DR9       -4.46 dB   -27.76 dB      9:14 07-Uranus - Neptune
--------------------------------------------------------------------------------

Number of tracks:  7
Official DR value: DR10

Samplerate:        88200 Hz
Channels:          6
Bits per sample:   24
Bitrate:           4793 kbps
Codec:             FLAC
================================================================================




Create a new paste based on this one


Comments: