[ create a new paste ] login | about

Link: http://codepad.org/t1k5F94o    [ raw code | fork ]

Plain Text, pasted on Aug 27:
Exact Audio Copy V1.0 beta 3 from 29. August 2011

EAC extraction logfile from 6. January 2014, 6:38

George Benson / Songs and Stories

Used drive  : HL-DT-STDVDRAM GH24NS50   Adapter: 2  ID: 1

Read mode               : Secure
Utilize accurate stream : Yes
Defeat audio cache      : Yes
Make use of C2 pointers : No

Read offset correction                      : 667
Overread into Lead-In and Lead-Out          : No
Fill up missing offset samples with silence : Yes
Delete leading and trailing silent blocks   : No
Null samples used in CRC calculations       : Yes
Used interface                              : Native Win32 interface for Win NT & 2000
Gap handling                                : Appended to previous track

Used output format              : User Defined Encoder
Selected bitrate                : 1024 kBit/s
Quality                         : High
Add ID3 tag                     : No
Command line compressor         : D:\Program Files\FLAC\flac.exe
Additional command line options : -8 -V -T "ARTIST=%artist%" -T "TITLE=%title%" -T "ALBUM=%albumtitle%" -T "DATE=%year%" -T "TRACKNUMBER=%tracknr%" -T "GENRE=%genre%" -T "PERFORMER=%albuminterpret%" -T "COMPOSER=%composer%" %haslyrics%--tag-from-file=LYRICS="%lyricsfile%"%haslyrics% -T "ALBUMARTIST=%albumartist%" -T "DISCNUMBER=%cdnumber%" -T "TOTALDISCS=%totalcds%" -T "TOTALTRACKS=%numtracks%" -T "COMMENT=%comment%" %source% -o %dest%


TOC of the extracted CD

     Track |   Start  |  Length  | Start sector | End sector 
    ---------------------------------------------------------
        1  |  0:00.00 |  3:48.33 |         0    |    17132   
        2  |  3:48.33 |  4:19.25 |     17133    |    36582   
        3  |  8:07.58 |  4:17.36 |     36583    |    55893   
        4  | 12:25.19 |  5:56.10 |     55894    |    82603   
        5  | 18:21.29 |  6:21.45 |     82604    |   111223   
        6  | 24:42.74 |  5:30.34 |    111224    |   136007   
        7  | 30:13.33 |  4:33.01 |    136008    |   156483   
        8  | 34:46.34 |  5:29.56 |    156484    |   181214   
        9  | 40:16.15 |  4:51.20 |    181215    |   203059   
       10  | 45:07.35 |  4:42.53 |    203060    |   224262   
       11  | 49:50.13 |  7:14.51 |    224263    |   256863   
       12  | 57:04.64 |  5:19.45 |    256864    |   280833   
       13  | 62:24.34 |  4:06.26 |    280834    |   299309   


Track  1

     Filename D:\01 - Don't Letme Be Lonely Tonight.wav

     Pre-gap length  0:00:02.00

     Peak level 99.7 %
     Extraction speed 1.1 X
     Track quality 100.0 %
     Test CRC A495C3ED
     Copy CRC A495C3ED
     Accurately ripped (confidence 6)  [310BACD4]  (AR v2)
     Copy OK

Track  2

     Filename D:\02 - Family Reunion.wav

     Peak level 99.7 %
     Extraction speed 1.2 X
     Track quality 100.0 %
     Test CRC 68C6F88E
     Copy CRC 68C6F88E
     Accurately ripped (confidence 6)  [25DB2C33]  (AR v2)
     Copy OK

Track  3

     Filename D:\03 - Show Me the Love.wav

     Pre-gap length  0:00:01.11

     Peak level 99.7 %
     Extraction speed 1.3 X
     Track quality 100.0 %
     Test CRC D8C3AFF2
     Copy CRC D8C3AFF2
     Accurately ripped (confidence 7)  [626FC646]  (AR v2)
     Copy OK

Track  4

     Filename D:\04 - A Telephone Call Away.wav

     Pre-gap length  0:00:01.33

     Peak level 99.7 %
     Extraction speed 1.5 X
     Track quality 100.0 %
     Test CRC 3FF3151B
     Copy CRC 3FF3151B
     Accurately ripped (confidence 6)  [5289800F]  (AR v2)
     Copy OK

Track  5

     Filename D:\05 - Someday We'll All Be Free.wav

     Pre-gap length  0:00:01.42

     Peak level 99.7 %
     Extraction speed 1.7 X
     Track quality 100.0 %
     Test CRC 332A550C
     Copy CRC 332A550C
     Accurately ripped (confidence 6)  [642B5213]  (AR v2)
     Copy OK

Track  6

     Filename D:\06 - Nuthin' But a Party.wav

     Pre-gap length  0:00:01.63

     Peak level 99.7 %
     Extraction speed 1.8 X
     Track quality 100.0 %
     Test CRC 7467F134
     Copy CRC 7467F134
     Accurately ripped (confidence 7)  [0BF93994]  (AR v2)
     Copy OK

Track  7

     Filename D:\07 - Come in from the Cold.wav

     Pre-gap length  0:00:01.49

     Peak level 99.7 %
     Extraction speed 1.9 X
     Track quality 100.0 %
     Test CRC FF519A8A
     Copy CRC FF519A8A
     Accurately ripped (confidence 7)  [05E1CE88]  (AR v2)
     Copy OK

Track  8

     Filename D:\08 - Exotica.wav

     Pre-gap length  0:00:01.62

     Peak level 99.7 %
     Extraction speed 2.0 X
     Track quality 100.0 %
     Test CRC B321BE5A
     Copy CRC B321BE5A
     Accurately ripped (confidence 7)  [38A45348]  (AR v2)
     Copy OK

Track  9

     Filename D:\09 - Rainy Night in Georgia.wav

     Pre-gap length  0:00:01.35

     Peak level 99.7 %
     Extraction speed 2.1 X
     Track quality 100.0 %
     Test CRC 9E5A3209
     Copy CRC 9E5A3209
     Accurately ripped (confidence 7)  [173878C1]  (AR v2)
     Copy OK

Track 10

     Filename D:\10 - One Like You.wav

     Pre-gap length  0:00:01.21

     Peak level 99.7 %
     Extraction speed 2.1 X
     Track quality 100.0 %
     Test CRC 8A40855F
     Copy CRC 8A40855F
     Accurately ripped (confidence 7)  [B8729C8E]  (AR v2)
     Copy OK

Track 11

     Filename D:\11 - Living in High Definition.wav

     Pre-gap length  0:00:01.28

     Peak level 99.7 %
     Extraction speed 2.3 X
     Track quality 100.0 %
     Test CRC 90B4A70B
     Copy CRC 90B4A70B
     Accurately ripped (confidence 6)  [DCF1019F]  (AR v2)
     Copy OK

Track 12

     Filename D:\12 - Sailing.wav

     Pre-gap length  0:00:00.37

     Peak level 99.8 %
     Extraction speed 2.3 X
     Track quality 100.0 %
     Test CRC FE88ABCC
     Copy CRC FE88ABCC
     Accurately ripped (confidence 7)  [35210AD9]  (AR v2)
     Copy OK

Track 13

     Filename D:\13 - It Ain't Over.wav

     Pre-gap length  0:00:03.67

     Peak level 93.3 %
     Extraction speed 2.1 X
     Track quality 99.9 %
     Test CRC B356EC7C
     Copy CRC B356EC7C
     Accurately ripped (confidence 7)  [9E3B41DA]  (AR v2)
     Copy OK


All tracks accurately ripped

No errors occurred

End of status report

---- CUETools DB Plugin V2.1.3

[CTDB TOCID: sL5LEXWUEk1s7bE_cc60FzNkeCk-] found, Submit result: sL5LEXWUEk1s7bE_cc60FzNkeCk- has been confirmed
[d2d61741] (2/3) Accurately ripped
[870932bf] (1/3) No match


==== Log checksum BB3BC261B6470C18AE2BFB9EA7203D5C0E43175BE07E5DC8163B7F07256AFE19 ====



Create a new paste based on this one


Comments: