[ create a new paste ] login | about

Link: http://codepad.org/t47pT1sV    [ raw code | fork ]

Plain Text, pasted on Jul 9:
[CUETools log; Date: 7/9/2016 5:35:18 AM; Version: 2.1.5]
[CTDB TOCID: xQllnVhpZ0IHlEWrP_ngp_iUK6A-] found.
Track | CTDB Status
  1   | (34/34) Accurately ripped
  2   | (34/34) Accurately ripped
  3   | (34/34) Accurately ripped
  4   | (34/34) Accurately ripped
  5   | (34/34) Accurately ripped
  6   | (34/34) Accurately ripped
  7   | (34/34) Accurately ripped
  8   | (34/34) Accurately ripped
  9   | (34/34) Accurately ripped
 10   | (34/34) Accurately ripped
[AccurateRip ID: 001b72b7-00dbe197-9610bc0a] found.
Track   [  CRC   |   V2   ] Status
 01     [4092db2c|dae84e8a] (02+12/14) Accurately ripped
 02     [81c4f515|789eb4c3] (02+12/14) Accurately ripped
 03     [939c14d3|bca08f72] (02+12/14) Accurately ripped
 04     [ba091e5b|3831b4ae] (02+12/14) Accurately ripped
 05     [e42249c4|e9172b33] (02+12/14) Accurately ripped
 06     [dc5e845a|b8801a15] (02+12/14) Accurately ripped
 07     [55ee39df|443af07c] (02+12/14) Accurately ripped
 08     [a48cf5ef|5fb640cc] (02+12/14) Accurately ripped
 09     [17a65ae2|2545c6db] (02+12/14) Accurately ripped
 10     [56d9c598|961c0021] (02+12/14) Accurately ripped

Track Peak [ CRC32  ] [W/O NULL] [  LOG   ]
 --   99.9 [FD23AF9C] [668D57D3]           
 01   98.8 [BA5DFE84] [27B0ECEA]   CRC32   
 02   98.8 [067C3ECD] [F8D1586A]   CRC32   
 03   98.8 [FC00CAA3] [95033D4D]   CRC32   
 04   98.8 [37995451] [5B18609A]   CRC32   
 05   83.1 [FA9775EB] [5D7F43A4]   CRC32   
 06   98.8 [93CFFDF0] [1CDBFEC1]   CRC32   
 07   98.8 [8504835E] [A53A6AAC]   CRC32   
 08   99.9 [80CC1B8C] [474C8412]   CRC32   
 09   98.8 [9EAA5047] [8FA17A92]   CRC32   
 10   96.3 [5F238E83] [478D3484]   CRC32   



Create a new paste based on this one


Comments: