[ create a new paste ] login | about

Link: http://codepad.org/t5o96Beq    [ raw code | fork ]

Plain Text, pasted on May 18:
foobar2000 1.4.1 / Dynamic Range Meter 1.1.1
log date: 2019-05-18 10:00:23

--------------------------------------------------------------------------------
Analyzed: Paul McCartney / Egypt Station (Deluxe edition)
--------------------------------------------------------------------------------

DR         Peak         RMS     Duration Track
--------------------------------------------------------------------------------
DR9       -8.34 dB   -22.67 dB      0:42 01-Opening Station
DR6       -0.20 dB    -7.98 dB      4:27 02-I Don't Know
DR4       -0.20 dB    -5.94 dB      4:11 03-Come On To Me
DR7       -0.20 dB    -8.51 dB      3:34 04-Happy With You
DR7       -0.20 dB    -8.85 dB      3:13 05-Who Cares
DR5       -0.20 dB    -7.25 dB      3:24 06-Fuh You
DR9       -0.20 dB   -11.01 dB      3:05 07-Confidante
DR6       -0.20 dB    -8.39 dB      2:59 08-People Want Peace
DR9       -0.20 dB   -11.20 dB      2:35 09-Hand In Hand
DR5       -0.20 dB    -6.87 dB      5:02 10-Dominoes
DR6       -0.20 dB    -8.33 dB      3:21 11-Back In Brazil
DR5       -0.20 dB    -9.31 dB      3:17 12-Do It Now
DR6       -0.20 dB    -8.07 dB      3:29 13-Caesar Rock
DR6       -0.20 dB    -7.28 dB      6:58 14-Despite Repeated Warnings
DR10      -1.67 dB   -18.36 dB      0:47 15-Station II
DR6       -0.20 dB    -8.23 dB      6:23 16-Hunt You Down/Naked/C-Link
DR6       -0.20 dB    -7.34 dB      3:41 17-Get Started
DR6       -0.20 dB    -7.39 dB      3:15 18-Nothing For Free
DR6       -0.20 dB    -7.86 dB      2:44 19-Frank Sinatra’s Party
DR7       -0.20 dB    -8.84 dB      3:57 20-Sixty Second Street
DR7       -0.20 dB    -8.82 dB      5:34 21-Who Cares
DR4       -0.20 dB    -8.67 dB      2:56 22-Get Enough
DR6       -0.20 dB    -7.65 dB      4:19 23-Come On To Me
DR6       -0.20 dB    -8.21 dB      3:36 24-Fuh You
DR10      -0.20 dB   -11.92 dB      3:16 25-Confidante
DR8       -0.20 dB    -9.75 dB      3:03 26-Who Cares
--------------------------------------------------------------------------------

Number of tracks:  26
Official DR value: DR7

Samplerate:        96000 Hz
Channels:          2
Bits per sample:   24
Bitrate:           2906 kbps
Codec:             FLAC
================================================================================




Create a new paste based on this one


Comments: