[ create a new paste ] login | about

Link: http://codepad.org/t8qS9s3x    [ raw code | fork ]

Plain Text, pasted on Aug 13:
Exact Audio Copy V1.0 beta 2 from 29. April 2011

EAC extraction logfile from 17. August 2011, 19:43

The Seeds / The Seeds

Used drive  : HL-DT-STDVDRAM GSA-H60N   Adapter: 2  ID: 0

Read mode               : Secure
Utilize accurate stream : Yes
Defeat audio cache      : Yes
Make use of C2 pointers : No

Read offset correction                      : 667
Overread into Lead-In and Lead-Out          : No
Fill up missing offset samples with silence : Yes
Delete leading and trailing silent blocks   : No
Null samples used in CRC calculations       : Yes
Used interface                              : Native Win32 interface for Win NT & 2000

Used output format : Internal WAV Routines
Sample format      : 44.100 Hz; 16 Bit; Stereo


TOC of the extracted CD

     Track |   Start  |  Length  | Start sector | End sector 
    ---------------------------------------------------------
        1  |  0:00.00 |  3:04.69 |         0    |    13868   
        2  |  3:04.69 |  2:17.06 |     13869    |    24149   
        3  |  5:22.00 |  2:19.24 |     24150    |    34598   
        4  |  7:41.24 |  5:17.04 |     34599    |    58377   
        5  | 12:58.28 |  2:25.26 |     58378    |    69278   
        6  | 15:23.54 |  2:38.51 |     69279    |    81179   
        7  | 18:02.30 |  2:54.24 |     81180    |    94253   
        8  | 20:56.54 |  3:54.43 |     94254    |   111846   
        9  | 24:51.22 |  2:40.60 |    111847    |   123906   
       10  | 27:32.07 |  2:12.08 |    123907    |   133814   
       11  | 29:44.15 |  2:21.59 |    133815    |   144448   
       12  | 32:05.74 |  2:48.06 |    144449    |   157054   
       13  | 34:54.05 |  9:44.40 |    157055    |   200894   


Range status and errors

Selected range

     Filename C:\The Seeds\1966 The Seeds (Hayabusa Landings Japan Mini LP 2010)\The Seeds - The Seeds.wav

     Peak level 99.3 %
     Extraction speed 5.6 X
     Range quality 99.9 %
     Test CRC 1C2823AC
     Copy CRC 1C2823AC
     Copy OK

No errors occurred

 
AccurateRip summary
 
Track  1  not present in database
Track  2  not present in database
Track  3  not present in database
Track  4  not present in database
Track  5  not present in database
Track  6  not present in database
Track  7  not present in database
Track  8  not present in database
Track  9  not present in database
Track 10  not present in database
Track 11  not present in database
Track 12  not present in database
Track 13  not present in database
 
None of the tracks are present in the AccurateRip database

End of status report

==== Log checksum F2D23DB542232640C85A5E140226D7F72D3868B9E967F0EFDCD22F3A1F9A2C44 ====



Create a new paste based on this one


Comments: