[ create a new paste ] login | about

Link: http://codepad.org/tA1S6iO1    [ raw code | fork ]

Plain Text, pasted on Sep 16:
foobar2000 1.4.6 / Dynamic Range Meter 1.1.1
log date: 2019-09-15 21:36:50

--------------------------------------------------------------------------------
Analyzed: Vanessa Fernandez / I Want You
--------------------------------------------------------------------------------

DR         Peak         RMS     Duration Track
--------------------------------------------------------------------------------
DR12      -7.62 dB   -22.08 dB      5:08 01-Right On For The Darkness (C Mayfield)
DR12      -6.20 dB   -20.94 dB      5:30 02-I Want You (L Ware, A Ross)
DR12      -5.84 dB   -21.24 dB      5:14 03-Human (Graham, Hartman)
DR12      -5.64 dB   -21.64 dB      6:39 04-Every Time You Go Away (Darryl Hail)
DR13      -5.16 dB   -21.53 dB      3:47 05-Hey Stranger (Album Mix) (V Fernandez)
DR12      -5.96 dB   -21.34 dB      5:08 06-Angel Dust (Scott-Heron)
DR12      -6.90 dB   -22.42 dB      6:25 07-Tripping Out (Sigler)
DR12      -7.32 dB   -22.72 dB      4:59 08-Billie Jean (M Jackson)
DR11      -5.21 dB   -20.41 dB      5:49 09-Creep (Hazelwood, Hammond, Jr Greenwood, Yorke, Cg Greenwood, Selway, O'Brien)
DR11      -5.64 dB   -20.00 dB      4:08 10-I Will Survive! (Ferrakis, Kennedy, Perren)
DR12      -7.68 dB   -22.48 dB      4:03 11-Back to Back (Ronson, Winehouse)
DR14      -4.96 dB   -21.86 dB      3:48 12-Hey Stranger (Alternate Mix) (V Fernandez)
--------------------------------------------------------------------------------

Number of tracks:  12
Official DR value: DR12

Samplerate:        5644800 Hz / PCM Samplerate: 176400 Hz
Channels:          2
Bits per sample:   1
Bitrate:           11290 kbps
Codec:             DSD128
================================================================================




Create a new paste based on this one


Comments: