[ create a new paste ] login | about

Link: http://codepad.org/tFXififE    [ raw code | fork ]

Plain Text, pasted on Apr 13:
foobar2000 1.3.17 / Dynamic Range Meter 1.1.1
log date: 2018-04-13 10:31:05

--------------------------------------------------------------------------------
Analyzed: Rory Gallagher / Big Guns - The Very Best Of
--------------------------------------------------------------------------------

DR         Peak         RMS     Duration Track
--------------------------------------------------------------------------------
DR12      -4.11 dB   -16.76 dB      3:53 01-Big Guns
DR10      -4.43 dB   -18.30 dB      2:48 02-What's Going On
DR11      -4.13 dB   -18.22 dB      4:50 03-Tattoo'd Lady
DR12      -4.11 dB   -18.52 dB      3:57 04-Bad Penny
DR10      -4.07 dB   -17.01 dB      4:56 05-Shadow Play
DR12      -4.11 dB   -18.53 dB      4:52 06-Kickback City
DR11      -4.04 dB   -16.50 dB      4:05 07-Bourbon
DR10      -4.09 dB   -16.62 dB      5:48 08-Sinnerboy
DR11      -4.36 dB   -18.27 dB      5:15 09-Used To Be
DR13      -3.84 dB   -17.99 dB      4:57 10-Goin' To My Hometown
DR9       -4.05 dB   -16.89 dB      6:47 11-Bullfrog Blues
DR10      -4.02 dB   -16.67 dB      4:25 12-Messin' With The Kid
--------------------------------------------------------------------------------

Number of tracks:  12
Official DR value: DR11

Samplerate:        2822400 Hz / PCM Samplerate: 176400 Hz
Channels:          6
Bits per sample:   1
Bitrate:           16934 kbps
Codec:             DST64
================================================================================

--------------------------------------------------------------------------------
Analyzed: Rory Gallagher / Big Guns - The Very Best Of
--------------------------------------------------------------------------------

DR         Peak         RMS     Duration Track
--------------------------------------------------------------------------------
DR6       -4.32 dB   -11.11 dB      3:53 01-Big Guns
DR6       -4.70 dB   -12.44 dB      2:48 02-What's Going On
DR6       -4.39 dB   -12.22 dB      4:50 03-Tattoo'd Lady
DR7       -4.43 dB   -12.57 dB      3:57 04-Bad Penny
DR5       -4.38 dB   -11.19 dB      4:56 05-Shadow Play
DR7       -4.39 dB   -12.38 dB      4:52 06-Kickback City
DR5       -4.27 dB   -10.67 dB      4:05 07-Bourbon
DR5       -4.25 dB   -11.39 dB      5:48 08-Sinnerboy
DR7       -4.40 dB   -12.32 dB      5:15 09-Used To Be
DR6       -3.81 dB   -12.04 dB      4:57 10-Goin' To My Hometown
DR5       -4.22 dB   -10.85 dB      6:47 11-Bullfrog Blues
DR5       -4.37 dB   -10.89 dB      4:25 12-Messin' With The Kid
--------------------------------------------------------------------------------

Number of tracks:  12
Official DR value: DR6

Samplerate:        2822400 Hz / PCM Samplerate: 176400 Hz
Channels:          2
Bits per sample:   1
Bitrate:           5645 kbps
Codec:             DST64
================================================================================




Create a new paste based on this one


Comments: