[ create a new paste ] login | about

Link: http://codepad.org/tKYezDnZ    [ raw code | fork ]

Plain Text, pasted on May 8:
foobar2000 1.4.1 / Dynamic Range Meter 1.1.1
log date: 2019-05-07 23:16:14

--------------------------------------------------------------------------------
Analyzed: MILES DAVIS / BLACK BEAUTY: MILES DAVIS AT FILLMORE WEST
--------------------------------------------------------------------------------

DR         Peak         RMS     Duration Track
--------------------------------------------------------------------------------
DR13      -0.43 dB   -19.60 dB     12:55 01-Bitches Brew
DR11      -1.12 dB   -15.48 dB     10:48 01-Directions
DR11      -0.01 dB   -15.86 dB     12:13 02-Masqualero
DR12      -0.53 dB   -16.26 dB     12:22 02-Miles Runs The Voodoo Down
DR12      -0.72 dB   -17.67 dB      9:07 03-Spanish Key The Theme
DR12      -0.98 dB   -16.03 dB      6:23 03-Willie Nelson
DR11      -4.94 dB   -21.18 dB      1:35 04-I Fall In Love Too Easily
DR11      -0.81 dB   -15.67 dB      4:01 05-Sanctuary
DR12      -0.01 dB   -16.68 dB      9:59 06-It's About That Time
--------------------------------------------------------------------------------

Number of tracks:  9
Official DR value: DR12

Samplerate:        88200 Hz
Channels:          2
Bits per sample:   24
Bitrate:           2828 kbps
Codec:             FLAC
================================================================================




Create a new paste based on this one


Comments: