[ create a new paste ] login | about

Link: http://codepad.org/tQZ4UhOL    [ raw code | fork ]

Plain Text, pasted on Dec 14:
Exact Audio Copy V1.0 beta 3 from 29. August 2011

EAC extraction logfile from 24. April 2012, 21:27

The Glenn Miller Orchestra / In the Christmas Mood II

Used drive  : HL-DT-STDVDRAM GT32N   Adapter: 0  ID: 1

Read mode               : Secure
Utilize accurate stream : Yes
Defeat audio cache      : Yes
Make use of C2 pointers : No

Read offset correction                      : 103
Overread into Lead-In and Lead-Out          : No
Fill up missing offset samples with silence : Yes
Delete leading and trailing silent blocks   : No
Null samples used in CRC calculations       : Yes
Used interface                              : Native Win32 interface for Win NT & 2000
Gap handling                                : Appended to previous track

Used output format              : User Defined Encoder
Selected bitrate                : 1024 kBit/s
Quality                         : High
Add ID3 tag                     : No
Command line compressor         : C:\Program Files (x86)\Exact Audio Copy\Flac\flac.exe
Additional command line options : -8 -V -T "ARTIST=%artist%" -T "TITLE=%title%" -T "ALBUM=%albumtitle%" -T "DATE=%year%" -T "TRACKNUMBER=%tracknr%" -T "GENRE=%genre%" -T "PERFORMER=%albuminterpret%" -T "COMPOSER=%composer%" %haslyrics%--tag-from-file=LYRICS="%lyricsfile%"%haslyrics% -T "ALBUMARTIST=%albumartist%" -T "DISCNUMBER=%cdnumber%" -T "TOTALDISCS=%totalcds%" -T "TOTALTRACKS=%numtracks%" -T "COMMENT=%comment%" %source% -o %dest%


TOC of the extracted CD

     Track |   Start  |  Length  | Start sector | End sector 
    ---------------------------------------------------------
        1  |  0:00.00 |  3:20.13 |         0    |    15012   
        2  |  3:20.13 |  3:51.72 |     15013    |    32409   
        3  |  7:12.10 |  5:42.18 |     32410    |    58077   
        4  | 12:54.28 |  3:24.02 |     58078    |    73379   
        5  | 16:18.30 |  3:23.28 |     73380    |    88632   
        6  | 19:41.58 |  4:34.27 |     88633    |   109209   
        7  | 24:16.10 |  5:18.18 |    109210    |   133077   
        8  | 29:34.28 |  2:47.70 |    133078    |   145672   
        9  | 32:22.23 |  2:33.45 |    145673    |   157192   
       10  | 34:55.68 |  3:32.35 |    157193    |   173127   
       11  | 38:28.28 |  3:14.12 |    173128    |   187689   
       12  | 41:42.40 |  2:31.73 |    187690    |   199087   


Track  1

     Filename C:\Users\Sloth\Desktop\Torrent Files\The Glenn Miller Orchestra - In The Christmas Mood II (1998) [FLAC]\01 We Wish You a Merry Christmas.wav

     Pre-gap length  0:00:02.00

     Peak level 99.8 %
     Extraction speed 1.0 X
     Track quality 99.9 %
     Test CRC 24D123D9
     Copy CRC 24D123D9
     Accurately ripped (confidence 3)  [E99AC3C7]  (AR v1)
     Copy OK

Track  2

     Filename C:\Users\Sloth\Desktop\Torrent Files\The Glenn Miller Orchestra - In The Christmas Mood II (1998) [FLAC]\02 White Christmas.wav

     Pre-gap length  0:00:03.84

     Peak level 99.9 %
     Extraction speed 1.3 X
     Track quality 100.0 %
     Test CRC B4F53092
     Copy CRC B4F53092
     Accurately ripped (confidence 3)  [FE7DEE6D]  (AR v1)
     Copy OK

Track  3

     Filename C:\Users\Sloth\Desktop\Torrent Files\The Glenn Miller Orchestra - In The Christmas Mood II (1998) [FLAC]\03 Yuletide Medley #1- Away in a Manger , Ave Maria , The First Noel.wav

     Pre-gap length  0:00:06.02

     Peak level 99.8 %
     Extraction speed 1.5 X
     Track quality 100.0 %
     Test CRC 863C32BD
     Copy CRC 863C32BD
     Accurately ripped (confidence 3)  [7C72030A]  (AR v1)
     Copy OK

Track  4

     Filename C:\Users\Sloth\Desktop\Torrent Files\The Glenn Miller Orchestra - In The Christmas Mood II (1998) [FLAC]\04 The Twelve Days of Christmas.wav

     Pre-gap length  0:00:01.97

     Peak level 99.9 %
     Extraction speed 1.6 X
     Track quality 100.0 %
     Test CRC EC3FD160
     Copy CRC EC3FD160
     Accurately ripped (confidence 3)  [79D2E5AC]  (AR v1)
     Copy OK

Track  5

     Filename C:\Users\Sloth\Desktop\Torrent Files\The Glenn Miller Orchestra - In The Christmas Mood II (1998) [FLAC]\05 Winter Wonderland.wav

     Pre-gap length  0:00:04.00

     Peak level 99.9 %
     Extraction speed 1.6 X
     Track quality 100.0 %
     Test CRC 8252F249
     Copy CRC 8252F249
     Accurately ripped (confidence 3)  [2D21180A]  (AR v1)
     Copy OK

Track  6

     Filename C:\Users\Sloth\Desktop\Torrent Files\The Glenn Miller Orchestra - In The Christmas Mood II (1998) [FLAC]\06 The Christmas Song.wav

     Pre-gap length  0:00:03.46

     Peak level 87.2 %
     Extraction speed 1.8 X
     Track quality 100.0 %
     Test CRC 76A2FBE7
     Copy CRC 76A2FBE7
     Accurately ripped (confidence 3)  [EB6599E0]  (AR v1)
     Copy OK

Track  7

     Filename C:\Users\Sloth\Desktop\Torrent Files\The Glenn Miller Orchestra - In The Christmas Mood II (1998) [FLAC]\07 Yuletide Medley #2- Hark the Herald Angels Sing , Angels We Have Heard on High , God Rest Ye Merry Gentlemen , O Come All Ye Faithful.w

     Pre-gap length  0:00:01.42

     Peak level 100.0 %
     Extraction speed 2.0 X
     Track quality 100.0 %
     Test CRC 0D3CD947
     Copy CRC 0D3CD947
     Accurately ripped (confidence 3)  [DA4E67E7]  (AR v1)
     Copy OK

Track  8

     Filename C:\Users\Sloth\Desktop\Torrent Files\The Glenn Miller Orchestra - In The Christmas Mood II (1998) [FLAC]\08 (There's No Place Like) Home for the Holidays.wav

     Pre-gap length  0:00:04.84

     Peak level 100.0 %
     Extraction speed 1.9 X
     Track quality 100.0 %
     Test CRC CD14C98A
     Copy CRC CD14C98A
     Accurately ripped (confidence 3)  [CC7F4D63]  (AR v1)
     Copy OK

Track  9

     Filename C:\Users\Sloth\Desktop\Torrent Files\The Glenn Miller Orchestra - In The Christmas Mood II (1998) [FLAC]\09 Good King Wenceslas.wav

     Pre-gap length  0:00:03.64

     Peak level 99.9 %
     Extraction speed 1.9 X
     Track quality 100.0 %
     Test CRC 8D1215BE
     Copy CRC 8D1215BE
     Accurately ripped (confidence 3)  [ADD10147]  (AR v1)
     Copy OK

Track 10

     Filename C:\Users\Sloth\Desktop\Torrent Files\The Glenn Miller Orchestra - In The Christmas Mood II (1998) [FLAC]\10 Santa Claus Is Coming to Town.wav

     Pre-gap length  0:00:03.26

     Peak level 99.9 %
     Extraction speed 1.8 X
     Track quality 99.9 %
     Test CRC CEF1A604
     Copy CRC CEF1A604
     Accurately ripped (confidence 3)  [C6F95FC9]  (AR v1)
     Copy OK

Track 11

     Filename C:\Users\Sloth\Desktop\Torrent Files\The Glenn Miller Orchestra - In The Christmas Mood II (1998) [FLAC]\11 Let It Snow, Let It Snow, Let It Snow.wav

     Pre-gap length  0:00:02.20

     Peak level 99.9 %
     Extraction speed 2.1 X
     Track quality 100.0 %
     Test CRC 4315DF34
     Copy CRC 4315DF34
     Accurately ripped (confidence 3)  [5A275992]  (AR v1)
     Copy OK

Track 12

     Filename C:\Users\Sloth\Desktop\Torrent Files\The Glenn Miller Orchestra - In The Christmas Mood II (1998) [FLAC]\12 Auld Lang Syne.wav

     Pre-gap length  0:00:03.82

     Peak level 99.9 %
     Extraction speed 2.1 X
     Track quality 100.0 %
     Test CRC D9304AF3
     Copy CRC D9304AF3
     Accurately ripped (confidence 3)  [63D38508]  (AR v1)
     Copy OK


All tracks accurately ripped

No errors occurred

End of status report

---- CUETools DB Plugin V2.1.3

[CTDB TOCID: tK7DX7lHBliqSjFY2E7_XVn0FaE-] found, Submit result: tK7DX7lHBliqSjFY2E7_XVn0FaE- has been confirmed
[5814cfa3] (6/6) Accurately ripped


==== Log checksum AE422FDF9B8BD2444826C7EDA625830C6CD93FA611C9502FBD5A483D09764B0E ====



Create a new paste based on this one


Comments: