[ create a new paste ] login | about

Link: http://codepad.org/tS6Tp6z7    [ raw code | fork ]

Plain Text, pasted on Apr 15:
foobar2000 1.3.14 / Dynamic Range Meter 1.1.1
log date: 2017-04-13 21:11:57

--------------------------------------------------------------------------------
Analyzed: Bob Dylan / Bootleg Series Vol 6 - Live 1964 (2016 AF Hybrid SACD - Disc 1)
--------------------------------------------------------------------------------

DR         Peak         RMS     Duration Track
--------------------------------------------------------------------------------
DR13      -3.22 dB   -18.79 dB      3:58 01-The Times They Are a-Changin'
DR13      -3.07 dB   -19.46 dB      2:55 02-Spanish Harlem Incident
DR12      -3.81 dB   -19.70 dB      4:22 03-Talkin' John Birch Paranoid Blues
DR13      -4.31 dB   -20.78 dB      5:12 04-To Ramona
DR14      -3.80 dB   -22.09 dB      4:47 05-Who Killed Davey Moore?
DR13      -4.97 dB   -22.50 dB      8:37 06-Gates of Eden
DR13      -4.03 dB   -19.67 dB      3:56 07-If You Gotta Go, Go Now (Or Else You Got to Stay All Night)
DR15      -3.70 dB   -22.17 dB      9:56 08-It's Alright, Ma (I'm Only Bleeding)
DR14      -2.36 dB   -21.55 dB      5:29 09-I Don't Believe You (She Acts Like We Never Have Met)
DR14      -3.11 dB   -21.48 dB      6:38 10-Mr Tambourine Man
DR13      -2.12 dB   -20.56 dB      7:47 11-A Hard Rain's a-Gonna Fall
--------------------------------------------------------------------------------

Number of tracks:  11
Official DR value: DR13

Samplerate:        88200 Hz
Channels:          2
Bits per sample:   24
Bitrate:           2549 kbps
Codec:             FLAC
================================================================================



foobar2000 1.3.9 / Dynamic Range Meter 1.1.1
log date: 2016-06-09 16:10:23

--------------------------------------------------------------------------------
Analyzed: Bob Dylan feat Joan Baez / Bootleg Series Vol 6 - Live 1964 (2016 AF Hybrid SACD - Disc 2) (1-4)
          Bob Dylan / Bootleg Series Vol 6 - Live 1964 (2016 AF Hybrid SACD - Disc 2) (5-8)
--------------------------------------------------------------------------------

DR         Peak         RMS     Duration Track
--------------------------------------------------------------------------------
DR12      -3.68 dB   -19.62 dB      3:42 04-Mama, You Been on My Mind
DR12      -4.41 dB   -19.79 dB      4:06 05-Silver Dagger
DR12      -4.00 dB   -18.96 dB      6:09 06-With God on Our Side
DR12      -4.49 dB   -20.19 dB      5:21 07-It Ain't Me, Babe
DR13      -4.77 dB   -20.82 dB      5:42 01-Talkin' World War III Blues
DR13      -4.48 dB   -21.08 dB      4:13 02-Don't Think Twice, It's All Right
DR14      -4.17 dB   -21.61 dB      7:07 03-The Lonesome Death of Hattie Carroll
DR12      -4.62 dB   -19.77 dB      4:02 08-All I Really Want to Do
--------------------------------------------------------------------------------

Number of tracks:  8
Official DR value: DR12

Samplerate:        88200 Hz
Channels:          2
Bits per sample:   24
Bitrate:           2599 kbps
Codec:             FLAC
================================================================================




Create a new paste based on this one


Comments: