[ create a new paste ] login | about

Link: http://codepad.org/tXlT7Yav    [ raw code | fork ]

Plain Text, pasted on Apr 18:
foobar2000 1.4.1 / Dynamic Range Meter 1.1.1
log date: 2019-04-17 21:09:22

--------------------------------------------------------------------------------
Analyzed: ? / ?
--------------------------------------------------------------------------------

DR         Peak         RMS     Duration Track
--------------------------------------------------------------------------------
DR15      -0.95 dB   -19.40 dB      5:03 01-Summertime
DR12      -0.96 dB   -16.30 dB      3:50 02-Can't We Be Friends
DR11      -0.96 dB   -16.20 dB      4:35 03-A Foggy Day
DR14      -1.02 dB   -18.19 dB      4:02 04-Love Is Here To Stay
DR13      -0.96 dB   -16.40 dB      5:01 05-Don't Be That Way
DR11      -1.60 dB   -16.31 dB      4:49 06-I Won't Dance
DR11      -0.96 dB   -14.43 dB      3:13 07-I've Got My Love To Keep Me Warm
DR15      -0.95 dB   -19.22 dB      6:01 08-Autumn in New York
DR12      -1.90 dB   -16.37 dB      5:16 09-Stompin' At The Savoy
DR12      -2.27 dB   -15.89 dB      3:55 10-A Fine Romance
DR13      -2.41 dB   -18.71 dB      4:16 11-Let's Call The Whole Thing Off
DR13      -0.95 dB   -17.36 dB      5:56 12-Cheek To Cheek
DR14      -0.92 dB   -18.45 dB      3:46 13-Moonlight in Vermont
DR13      -0.95 dB   -16.68 dB      4:42 14-They Can't Take That Away From Me
DR13      -0.96 dB   -17.31 dB      4:20 15-Under A Blanket of Blue
DR13      -1.44 dB   -18.14 dB      5:09 16-Tenderly
--------------------------------------------------------------------------------

Number of tracks:  16
Official DR value: DR13

Samplerate:        88200 Hz
Channels:          2
Bits per sample:   24
Bitrate:           2403 kbps
Codec:             FLAC
================================================================================




Create a new paste based on this one


Comments: