[ create a new paste ] login | about

Link: http://codepad.org/tZnbYTcc    [ raw code | fork ]

Plain Text, pasted on Mar 2:
foobar2000 1.4.2 / Dynamic Range Meter 1.1.1
log date: 2019-02-23 21:18:57

--------------------------------------------------------------------------------
Analyzed: Yellow Magic Orchestra / Solid State Survivor (2018 Japan Hybrid SACD)
--------------------------------------------------------------------------------

DR         Peak         RMS     Duration Track
--------------------------------------------------------------------------------
DR7       -0.03 dB    -8.05 dB      4:15 01-Technopolis
DR7       -0.24 dB    -9.01 dB      4:37 02-Absolute Ego Dance
DR7       -0.01 dB    -8.37 dB      4:26 03-Rydeen
DR8       -0.31 dB   -11.50 dB      3:31 04-Castalia
DR7       -0.32 dB    -8.38 dB      3:37 05-Behind The Mask
DR7       -0.03 dB    -8.75 dB      2:41 06-Day Tripper
DR7       -0.38 dB    -9.44 dB      4:58 07-Insomnia
DR6       -0.11 dB    -7.93 dB      3:58 08-Solid State Survivor
--------------------------------------------------------------------------------

Number of tracks:  8
Official DR value: DR7

Samplerate:        88200 Hz
Channels:          2
Bits per sample:   24
Bitrate:           2821 kbps
Codec:             FLAC
================================================================================




Create a new paste based on this one


Comments: