[ create a new paste ] login | about

Link: http://codepad.org/taLCOjGy    [ raw code | fork ]

Plain Text, pasted on Sep 5:
Disc 1

foobar2000 1.4.6 / Dynamic Range Meter 1.1.1
log date: 2019-09-04 22:40:28

--------------------------------------------------------------------------------
Analyzed: Rundfunk-Sinfonieorchester Berlin, conducted by Marek Janowski / Richard Wagner: Das Rheingold
--------------------------------------------------------------------------------

DR         Peak         RMS     Duration Track
--------------------------------------------------------------------------------
DR13      -8.91 dB   -28.65 dB      4:15 01-Vorspiel (Prelude)
DR14      -4.46 dB   -26.50 dB      2:25 02-Weia! Waga!
DR16      -0.01 dB   -25.35 dB      4:58 03-Garstig glatter glitschriger Glimmer!
DR15      -1.55 dB   -26.04 dB      2:23 04-Wallala! Lalaleia! Leialalei!
DR14      -1.48 dB   -24.04 dB      5:45 05-Lugt, Schwestern! Die Weckerin lacht
DR13      -0.45 dB   -22.30 dB      1:47 06-Der Welt Erbe gewΣnne zu eigen
DR14      -4.76 dB   -27.34 dB      3:45 07-Orchesterzwischenspiel
DR12      -5.13 dB   -26.67 dB      1:51 08-Wotan! Gemahl! Erwache!
DR15      -1.05 dB   -25.76 dB      6:19 09-Nur Wonne schafft dir
DR16      -0.17 dB   -24.49 dB      7:02 10-Sanft schloss Schlaf dein Aug'
DR14      -3.29 dB   -24.52 dB      1:38 11-Zu mir, Freia!
DR14      -7.21 dB   -28.90 dB      3:27 12-Endlich, Loge!
DR15      -7.48 dB   -29.33 dB      5:30 13-Immer ist Undank Loges Lohn!
DR15      -6.65 dB   -29.92 dB      4:15 14-Taugte wohl des goldnen Tandes
DR16      -0.68 dB   -26.26 dB      4:38 15-H÷r', Wotan, der Harrenden Wort!
DR16      -4.97 dB   -29.31 dB      3:51 16-Jetzt fand ich's
DR14      -0.23 dB   -20.78 dB      2:37 17-Verwandlungsmusik
DR14      -0.05 dB   -24.06 dB      4:08 18-Hehe! Hehe!
--------------------------------------------------------------------------------

Number of tracks:  18
Official DR value: DR14

Samplerate:        88200 Hz
Channels:          5
Bits per sample:   24
Bitrate:           5467 kbps
Codec:             FLAC
================================================================================

=========================================================================================================================================================

Disc 2

foobar2000 1.4.6 / Dynamic Range Meter 1.1.1
log date: 2019-09-04 22:42:04

--------------------------------------------------------------------------------
Analyzed: Rundfunk-Sinfonieorchester Berlin, conducted by Marek Janowski / Richard Wagner: Das Rheingold
--------------------------------------------------------------------------------

DR         Peak         RMS     Duration Track
--------------------------------------------------------------------------------
DR14      -4.37 dB   -29.01 dB      3:34 01-Wer hΣlfe mir?
DR14      -0.82 dB   -23.61 dB      2:28 02-Mit eurem Gefrage
DR15      -2.89 dB   -27.38 dB      4:35 03-Was wollt ihr hier?
DR16      -2.27 dB   -27.50 dB      4:41 04-Habt acht! Habt acht!
DR14      -0.24 dB   -24.31 dB      3:34 05-Riesen-Wurm winde sich ringelnd!
DR14      -2.19 dB   -22.92 dB      3:19 06-Verwandlungsmusik
DR15      -7.01 dB   -29.22 dB      3:10 07-Da, Vetter, sitze du fest!
DR14      -0.14 dB   -23.80 dB      3:16 08-Wohlan, die Nibelungen rief ich mir nah
DR14      -1.86 dB   -24.98 dB      4:37 09-Zu deiner L÷sung musst du ihn lassen
DR15      -0.51 dB   -24.75 dB      4:03 10-Bin ich nun frei?
DR12      -6.56 dB   -29.37 dB      3:07 11-Lauschtest du seinem Liebesgru▀?
DR13      -7.47 dB   -28.43 dB      3:18 12-Halt! Nicht sie berⁿhrt!
DR14      -4.74 dB   -26.53 dB      2:01 13-Nicht so leicht und locker gefⁿgt!
DR14      -0.58 dB   -24.06 dB      2:41 14-Freia, die sch÷ne
DR15      -6.07 dB   -30.29 dB      5:30 15-Weiche, Wotan! weiche!
DR15      -0.59 dB   -23.30 dB      3:22 16-H÷rt, ihr Riesen!
DR16      -1.02 dB   -26.69 dB      2:27 17-Furchtbar nun erfind' ich des Fluches Kraft!
DR15      -0.01 dB   -25.51 dB      2:45 18-Schwⁿles Gedⁿnst schwebt in der Luft
DR14      -2.03 dB   -24.55 dB      4:23 19-Zur Burg fⁿhrt die Brⁿcke
DR12      -0.32 dB   -19.80 dB      3:04 20-Rheingold! Rheingold
--------------------------------------------------------------------------------

Number of tracks:  20
Official DR value: DR14

Samplerate:        88200 Hz
Channels:          5
Bits per sample:   24
Bitrate:           5603 kbps
Codec:             FLAC
================================================================================





Create a new paste based on this one


Comments: