[ create a new paste ] login | about

Link: http://codepad.org/tbNdF4Eb    [ raw code | fork ]

Plain Text, pasted on Jul 11:
Exact Audio Copy V1.3 from 2. September 2016

EAC extraction logfile from 11. March 2018, 14:22

The Flower Kings / Unfold The Future Reissue 2017 CD1

Used drive  : PLEXTOR BD-R  PX-B950SA   Adapter: 1  ID: 1

Read mode               : Secure
Utilize accurate stream : Yes
Defeat audio cache      : Yes
Make use of C2 pointers : No

Read offset correction                      : 6
Overread into Lead-In and Lead-Out          : No
Fill up missing offset samples with silence : Yes
Delete leading and trailing silent blocks   : No
Null samples used in CRC calculations       : Yes
Used interface                              : Native Win32 interface for Win NT & 2000

Used output format : Internal WAV Routines
Sample format      : 44.100 Hz; 16 Bit; Stereo


TOC of the extracted CD

     Track |   Start  |  Length  | Start sector | End sector 
    ---------------------------------------------------------
        1  |  0:00.00 | 30:53.55 |         0    |   139029   
        2  | 30:53.55 |  4:19.52 |    139030    |   158506   
        3  | 35:13.32 |  7:07.35 |    158507    |   190566   
        4  | 42:20.67 |  8:14.64 |    190567    |   227680   
        5  | 50:35.56 | 14:10.16 |    227681    |   291446   
        6  | 64:45.72 |  3:37.02 |    291447    |   307723   
        7  | 68:22.74 |  4:27.71 |    307724    |   327819   


Range status and errors

Selected range

     Filename C:\Flower Kings\2017 A Kingdom Of Colours (10CD Box Set InsideOut Music)\2002 Unfold The Future 2CD Re-Issue 2017\A-Side\The Flower Kings - Unfold The Future Reissue 2017 CD1.wav

     Peak level 100.0 %
     Extraction speed 8.4 X
     Range quality 100.0 %
     Test CRC 0E01A516
     Copy CRC 0E01A516
     Copy OK

No errors occurred

 
AccurateRip summary
 
Track  1  accurately ripped (confidence 2)  [D2CA20D2]  (AR v2)
Track  2  accurately ripped (confidence 2)  [2294A747]  (AR v2)
Track  3  accurately ripped (confidence 2)  [14C30314]  (AR v2)
Track  4  accurately ripped (confidence 2)  [F65FC5AB]  (AR v2)
Track  5  accurately ripped (confidence 2)  [A4C52623]  (AR v2)
Track  6  accurately ripped (confidence 2)  [3848EEEF]  (AR v2)
Track  7  accurately ripped (confidence 2)  [183B415F]  (AR v2)
 
All tracks accurately ripped

End of status report

---- CUETools DB Plugin V2.1.6

[CTDB TOCID: lCg9H4FdC5PcF9n7VRfrUPYey7o-] found
Submit result: lCg9H4FdC5PcF9n7VRfrUPYey7o- has been confirmed
Track | CTDB Status
  1   | (14/14) Accurately ripped
  2   | (14/14) Accurately ripped
  3   | (14/14) Accurately ripped
  4   | (14/14) Accurately ripped
  5   | (14/14) Accurately ripped
  6   | (14/14) Accurately ripped
  7   | (14/14) Accurately ripped


==== Log checksum 6B559D1F36A52B591D55B25B1C2E257F744D98CC0485D90A7A3361879C32225F ====


Exact Audio Copy V1.3 from 2. September 2016

EAC extraction logfile from 11. March 2018, 13:51

The Flower Kings / Unfold The Future Reissue 2017 CD2

Used drive  : PLEXTOR BD-R  PX-B950SA   Adapter: 1  ID: 1

Read mode               : Secure
Utilize accurate stream : Yes
Defeat audio cache      : Yes
Make use of C2 pointers : No

Read offset correction                      : 6
Overread into Lead-In and Lead-Out          : No
Fill up missing offset samples with silence : Yes
Delete leading and trailing silent blocks   : No
Null samples used in CRC calculations       : Yes
Used interface                              : Native Win32 interface for Win NT & 2000

Used output format : Internal WAV Routines
Sample format      : 44.100 Hz; 16 Bit; Stereo


TOC of the extracted CD

     Track |   Start  |  Length  | Start sector | End sector 
    ---------------------------------------------------------
        1  |  0:00.00 |  8:10.37 |         0    |    36786   
        2  |  8:10.37 |  6:32.13 |     36787    |    66199   
        3  | 14:42.50 |  5:00.44 |     66200    |    88743   
        4  | 19:43.19 |  4:32.25 |     88744    |   109168   
        5  | 24:15.44 |  4:48.36 |    109169    |   130804   
        6  | 29:04.05 |  5:04.26 |    130805    |   153630   
        7  | 34:08.31 |  3:46.62 |    153631    |   170642   
        8  | 37:55.18 |  2:46.69 |    170643    |   183161   
        9  | 40:42.12 | 19:21.63 |    183162    |   270299   


Range status and errors

Selected range

     Filename C:\Flower Kings\2017 A Kingdom Of Colours (10CD Box Set InsideOut Music)\2002 Unfold The Future 2CD Re-Issue 2017\B-Side\The Flower Kings - Unfold The Future Reissue 2017 CD2.wav

     Peak level 97.7 %
     Extraction speed 7.6 X
     Range quality 100.0 %
     Test CRC CE18BDBE
     Copy CRC CE18BDBE
     Copy OK

No errors occurred

 
AccurateRip summary
 
Track  1  accurately ripped (confidence 2)  [18920420]  (AR v2)
Track  2  accurately ripped (confidence 2)  [7CFE77DE]  (AR v2)
Track  3  accurately ripped (confidence 2)  [17DC5142]  (AR v2)
Track  4  accurately ripped (confidence 2)  [8CE2F11A]  (AR v2)
Track  5  accurately ripped (confidence 2)  [A6850FA4]  (AR v2)
Track  6  accurately ripped (confidence 2)  [698671E0]  (AR v2)
Track  7  accurately ripped (confidence 2)  [005F6BB4]  (AR v2)
Track  8  accurately ripped (confidence 2)  [43BA017F]  (AR v2)
Track  9  accurately ripped (confidence 2)  [109100EB]  (AR v2)
 
All tracks accurately ripped

End of status report

---- CUETools DB Plugin V2.1.6

[CTDB TOCID: V08jZ46iYKcwcVALNGnRvuswVTE-] found
Submit result: V08jZ46iYKcwcVALNGnRvuswVTE- has been confirmed
Track | CTDB Status
  1   | (15/15) Accurately ripped
  2   | (15/15) Accurately ripped
  3   | (15/15) Accurately ripped
  4   | (15/15) Accurately ripped
  5   | (15/15) Accurately ripped
  6   | (15/15) Accurately ripped
  7   | (15/15) Accurately ripped
  8   | (15/15) Accurately ripped
  9   | (14/15) Accurately ripped


==== Log checksum D584F94E284A241F433CADE6867C5AE4898DA2D46B5BF9D3E9A7392A1CD85554 ====



Create a new paste based on this one


Comments: