[ create a new paste ] login | about

Link: http://codepad.org/tcNRO2Zp    [ raw code | fork ]

Plain Text, pasted on Aug 13:
Exact Audio Copy V1.0 beta 2 from 29. April 2011

EAC extraction logfile from 18. August 2011, 21:10

Blue Mink / Raw & Alive In Concert At Merlin's Music Box

Used drive  : HL-DT-STDVDRAM GSA-H60N   Adapter: 2  ID: 0

Read mode               : Secure
Utilize accurate stream : Yes
Defeat audio cache      : Yes
Make use of C2 pointers : No

Read offset correction                      : 667
Overread into Lead-In and Lead-Out          : No
Fill up missing offset samples with silence : Yes
Delete leading and trailing silent blocks   : No
Null samples used in CRC calculations       : Yes
Used interface                              : Native Win32 interface for Win NT & 2000

Used output format : Internal WAV Routines
Sample format      : 44.100 Hz; 16 Bit; Stereo


TOC of the extracted CD

     Track |   Start  |  Length  | Start sector | End sector 
    ---------------------------------------------------------
        1  |  0:00.00 |  0:21.04 |         0    |     1578   
        2  |  0:21.04 |  3:47.09 |      1579    |    18612   
        3  |  4:08.13 |  2:29.09 |     18613    |    29796   
        4  |  6:37.22 |  2:07.49 |     29797    |    39370   
        5  |  8:44.71 |  2:32.21 |     39371    |    50791   
        6  | 11:17.17 |  9:53.72 |     50792    |    95338   
        7  | 21:11.14 |  4:32.71 |     95339    |   115809   
        8  | 25:44.10 |  2:36.63 |    115810    |   127572   
        9  | 28:20.73 |  2:30.60 |    127573    |   138882   
       10  | 30:51.58 |  2:43.28 |    138883    |   151135   
       11  | 33:35.11 |  4:57.19 |    151136    |   173429   
       12  | 38:32.30 |  3:01.08 |    173430    |   187012   


Range status and errors

Selected range

     Filename C:\The Seeds\1968 Raw & Alive (Hayabusa Landings Japan Mini LP 2011)\Blue Mink - Raw & Alive.wav

     Peak level 99.2 %
     Extraction speed 5.6 X
     Range quality 100.0 %
     Test CRC EBF096E8
     Copy CRC EBF096E8
     Copy OK

No errors occurred

 
AccurateRip summary
 
Track  1  not present in database
Track  2  not present in database
Track  3  not present in database
Track  4  not present in database
Track  5  not present in database
Track  6  not present in database
Track  7  not present in database
Track  8  not present in database
Track  9  not present in database
Track 10  not present in database
Track 11  not present in database
Track 12  not present in database
 
None of the tracks are present in the AccurateRip database

End of status report

==== Log checksum 4824618C2DE2C3D27C9BBC5A8B94BE5FF018444CEEBF1CF2D7242F0643183AE8 ====



Create a new paste based on this one


Comments: