[ create a new paste ] login | about

Link: http://codepad.org/toxSd8KJ    [ raw code | fork ]

Plain Text, pasted on Aug 27:
[CUETools log; Date: 8/20/2018 11:44:19 AM; Version: 2.1.5]
[CTDB TOCID: hpX0txs8QIoRFBLYeOKYqL6wnhg-] found.
Track | CTDB Status
  1   | (52/53) Accurately ripped
  2   | (51/53) Accurately ripped
  3   | (52/53) Accurately ripped
  4   | (52/53) Accurately ripped
  5   | (51/53) Accurately ripped
  6   | (52/53) Accurately ripped
  7   | (51/53) Accurately ripped
  8   | (52/53) Accurately ripped
  9   | (52/53) Accurately ripped
 10   | (52/53) Accurately ripped
 11   | (51/53) Accurately ripped
 12   | (52/53) Accurately ripped
 13   | (50/53) Accurately ripped
 14   | (52/53) Accurately ripped
 15   | (51/53) Accurately ripped
 16   | (52/53) Accurately ripped
 17   | (52/53) Accurately ripped
 18   | (51/53) Accurately ripped
 19   | (51/53) Accurately ripped
 20   | (52/53) Accurately ripped
[AccurateRip ID: 0022fe68-01fe1e92-fb0b5314] found.
Track   [  CRC   |   V2   ] Status
 01     [601bbc2d|f2f5df8f] (04+13/17) Accurately ripped
 02     [3cddb4ed|a5725759] (04+12/16) Accurately ripped
 03     [13a84ea6|7a8c8be3] (04+12/16) Accurately ripped
 04     [9f573411|1bbfca38] (04+13/17) Accurately ripped
 05     [97c13d3b|c33252ee] (04+12/16) Accurately ripped
 06     [97a5026e|ac869c05] (04+12/16) Accurately ripped
 07     [3d2f9967|5db9bb65] (04+12/16) Accurately ripped
 08     [fc014736|99f96d04] (04+13/17) Accurately ripped
 09     [cac339c0|7060eb66] (04+12/16) Accurately ripped
 10     [288eb586|e16894d4] (04+13/17) Accurately ripped
 11     [22bb8c8f|747d66c6] (04+13/17) Accurately ripped
 12     [2748e345|dd258bea] (04+13/17) Accurately ripped
 13     [f1dedd8e|f0f17ca6] (04+12/16) Accurately ripped
 14     [a8578f85|f3c4293d] (04+12/16) Accurately ripped
 15     [149c3171|6a33e372] (04+13/17) Accurately ripped
 16     [df2b0e20|27457219] (04+13/17) Accurately ripped
 17     [6263c280|90ebe963] (04+12/16) Accurately ripped
 18     [2fb81872|f1d56ed8] (04+13/17) Accurately ripped
 19     [cd3ac060|82f71881] (04+12/16) Accurately ripped
 20     [6a62b3b4|a15d53f8] (04+14/18) Accurately ripped

Track Peak [ CRC32  ] [W/O NULL] [  LOG   ]
 --  100.0 [7BB733A1] [9F277EEB]           
 01   93.4 [92219C34] [B38ACF8A]   CRC32   
 02   76.9 [BD58C2D6] [0D9DB0C7]   CRC32   
 03  100.0 [436BBA2B] [6CF31081]   CRC32   
 04   74.2 [2E3AF9B1] [614402C2]   CRC32   
 05   83.2 [F7BD002D] [C7125C4E]   CRC32   
 06   68.2 [EC9F7E37] [61DEFB75]   CRC32   
 07  100.0 [F2944135] [569C9519]   CRC32   
 08   85.4 [EDBF7D05] [8A0ADDD5]   CRC32   
 09   94.5 [691A9A87] [4FC62B6D]   CRC32   
 10   79.6 [0D3B46FD] [E7199400]   CRC32   
 11   84.3 [2028BF81] [3BD49D8F]   CRC32   
 12   68.4 [61637937] [04621281]   CRC32   
 13   62.0 [688867DD] [17DBD4EF]   CRC32   
 14   73.7 [85EBE6AC] [6317075E]   CRC32   
 15   96.4 [2B29572D] [C855F70D]   CRC32   
 16   99.9 [BAD84AFF] [BEF2B380]   CRC32   
 17   98.1 [40B4B9F2] [E131BBFE]   CRC32   
 18  100.0 [8D89E489] [301E776C]   CRC32   
 19   74.6 [4A342EE0] [C6B11E7C]   CRC32   
 20   68.8 [98563770] [F7AE9C06]   CRC32   



Create a new paste based on this one


Comments: